Джуда / Juda / Серии: Сезон 1, серии 1-8 из 8 (Мэни Яиш /Many Yaish, автор Цион Барух) [2017, Израиль, Мистический сериал, TVRip] Rus sub 

Цитировать
Джуда / Juda
Год выпуска: 2017
Страна: Израиль
Жанр: Мистический сериал
Серии (количество): Сезон 1, серии 1-8
Продолжительность: ~00:38:00 - 00:46:00 (1 серия)
Субтитры: русские субтитры (хардсаб)
Режиссёр: Мэни Яиш /Many Yaish, автор сериала Цион Барух
В ролях: Цион Барух, Амос Тамам, Майк Борштейн, Морис Коэн, Анастасия Файн и другие.
Описание: Иуда - мелкий мошенник, вместе со своим подельником берет ссуду у французской мафии. Он летит в Румынию, чтобы играть в азартные игры, но встречает там мистическую женщину. Еврей и вампир, возможно ли это? В сериале есть эффектные погони и драки, раввин знает важные тайны – и умеет предвидеть будущие ходы. Французы-мафиози ищут деньги, израильские полицейские ищут мафиози. Вампиры из Румынии осваивают реалии Израиля. Друзья Иуда и Ашер отбиваются от жадных и злобных кредиторов, попадают в разные крутые переплеты, проверяют на деле свою дружбу. Динамика сюжета не ослабевает ни на мгновение. На международном фестивале телепрограмм и сериалов в Париже (он называется Serias Mania) "Джуда" был удостоен главного приза в номинации "Международная панорама".
Релиз группы:
Доп. информация: Релиз мой.
Сэмпл: http://yadi.sk/i/pvQgAg0T3MMgsT
Ссылка на предыдущие и альтернативные раздачи: не было
Качество: TVRip
Формат: AVI
Видео кодек: XviD
Аудио кодек: MP3
Видео: 1501 Кbps, 704х400 (16:9), 25.000 fps, MPEG-4 Visual (XviD)(Advanced Simple@L5)(BVOP2)
Аудио: 128 Kbps,48.0 KHz, 2 сhannels, MPEG Audio (MP3) (Version 1)(Layer 3)(Joint stereo)

MI

General
Complete name : D:\Джуда\Cap-01.avi
Format : AVI
Format/Info : Audio Video Interleave
File size : 735 MiB
Duration : 1h 1mn
Overall bit rate : 1 671 Kbps
Writing library : VirtualDub-MPEG2 build 24600/release
Video
ID : 0
Format : MPEG-4 Visual
Format profile : Advanced Simple@L5
Format settings, BVOP : 2
Format settings, QPel : No
Format settings, GMC : No warppoints
Format settings, Matrix : Default (MPEG)
Codec ID : XVID
Codec ID/Hint : XviD
Duration : 1h 1mn
Bit rate : 1 501 Kbps
Width : 704 pixels
Height : 400 pixels
Display aspect ratio : 16:9
Frame rate : 25.000 fps
Color space : YUV
Chroma subsampling : 4:2:0
Bit depth : 8 bits
Scan type : Progressive
Compression mode : Lossy
Bits/(Pixel*Frame) : 0.213
Stream size : 660 MiB (90%)
Writing library : XviD 58
Audio
ID : 1
Format : MPEG Audio
Format version : Version 1
Format profile : Layer 3
Mode : Joint stereo
Mode extension : MS Stereo
Codec ID : 55
Codec ID/Hint : MP3
Duration : 1h 1mn
Bit rate mode : Constant
Bit rate : 160 Kbps
Channel(s) : 2 channels
Sampling rate : 48.0 KHz
Compression mode : Lossy
Stream size : 70.4 MiB (10%)
Alignment : Split accross interleaves
Interleave, duration : 40 ms (1.00 video frame)
Interleave, preload duration : 500 ms

Скриншоты

Вы не можете начинать темы
Вы не можете отвечать на сообщения
Вы не можете редактировать свои сообщения
Вы не можете удалять свои сообщения
Вы не можете голосовать в опросах
Вы не можете прикреплять файлы к сообщениям
Вы можете скачивать файлы
!ВНИМАНИЕ!

Сайт не предоставляет электронные версии произведений, а занимается лишь коллекционированием и каталогизацией ссылок, присылаемых и публикуемых на форуме нашими читателями. Если вы являетесь правообладателем какого-либо представленного материала и не желаете, чтобы ссылка на него находилась в нашем каталоге, свяжитесь с нами, и мы незамедлительно удалим ее. Файлы для обмена на трекере предоставлены пользователями сайта, и администрация не несет ответственности за их содержание. Просьба не заливать файлы, защищенные авторскими правами, а также файлы нелегального содержания!

Искали программы, игры, дополнения, музыка mp3, аниме, аудио книги, журналы? Добро пожаловать на свободный торрент трекер Torrents, у нас можно скачать бесплатно, без смс и регистрации и прочих ограничений лучшие, отборные сборки программ, игр. Скачать торрентом не составит труда даже не опытному пользователю. Раздачи ежедневно обновляются, только лучшие и качественные раздачи, подробные описания и скриншоты. Огромная коллекция программ для работы со звуком, графикой, дизайном, а так же множество плагинов и инструментов к ним с подробной инструкцией и рекомендациями. Прошивки для навигаторов, карты. Разнообразные игры, для Windows, Linux. В коллекцие есть и старые игры любых жанров, Rpg, Action, Shooter, strategy Множество дополнений, модификаций, сценариев для популярных игр в жанре экш, рпг, гонки, стратегии, логические игры. Множество аддонов и сценариев для Microsoft Flight Simulator Большая коллекция книг, учебников. Если нет возможности купить печатное издание - смело скачивайте цифровую версию книги или, быть может, журнала. Не любите читать - можно загрузить бесплатно аудикнигу. Для веб дизайнеров и программистов так же найдется множество специализированного софта, таких как: редакторы с подсветкой, среды программирования, компоненты, системы управления базами данных, разнообразные скрипты и шаблоны. Не так давно у нас появился материал для автолюбителей и владельцев мото - оригинальные и неоригинальные каталоги запчастей, книги и журналы по ремонту и обслуживанию, видеоуроки, статьи по чип тюнингу, прошивкам. Процедура получения контента элементарная, достаточно просто скачать торрент файл и добавить его в загрузку в вашем торрент клиенте. Если у вас нет специального торрент клиента, вы можете его скачать у нас.

SitemapMärz 2012 | 劇場版「進撃の巨人」後編~自由の翼~ (2015) | Register / Login