Звёздные Врата: Вселенная / Stargate: Universe / Сезон: 1 / Серии: 1-20 из 20 (Andy Mikita (эпизоды 01-03, 11, 19, 20), Peter DeLuise (эпизоды 04, 05, 16), William Wari) [2009, США, Канада, Научная фантастика, драма, BDRip] DVO (AXN Sci-Fi) + Origina 

Цитировать
Звёздные Врата: Вселенная / Stargate: Universe
Год выпуска: 2009
Страна: США, Канада
Жанр: Научная фантастика, драма
Продолжительность: 00:41:50 мин.
Перевод: Профессиональный (двухголосый закадровый) AXN Sci-Fi
Режиссёр: Andy Mikita (эпизоды 01-03, 11, 19, 20), Peter DeLuise (эпизоды 04, 05, 16), William Wari
В ролях: Robert Carlyle (Николас Раш), Louis Ferreira (Эверетт Янг), Brian J. Smith (Мэтью Скотт), Elyse Levesque (Хлоя Армстронг), David Blue (Илай Уоллес), Alaina Huffman (Тамара Йохансен), Jamil Walker Smith (Рональд Грир), Ming-Na (Камилла Рэй), Peter Kelamis (Адам Броуди), Patrick Gilmore (Дэйл Волкер), Jennifer Spence (Лиза Парк), Julia Benson (Ванесса Джеймс), Lou Diamond Phillips (Дэвид Тэлфорд), Jeffrey Bowyer-Chapman (Даррен Бэккер), Haig Sutherland (Хантер Райли), Mike Dopud (Варро), Mark Burgess (Джереми Франклин), Josh Blacker (Спенсер), Julie McNiven (Гинн), Richard Dean Anderson (Джек О'Нил), Robert Knepper (Симеон), Glynis Davies (Мэрианн Уоллес), Ona Grauer (Эмили Янг), Michael Shanks (Дэниэл Джексон), Rhona Mitra (Кива)
Описание: Набрав 9-шевронный адрес звёздных врат, команда базы "Икар" попадает на корабль древних, называемый "Судьба", построенный миллионы лет назад для распространения звёздных врат по вселенной. Група людей, возглавляемая доктором Николасом Рашем и полковником Эверетом Янгом, оказывается в ловушке на корабле. Они не могут изменить запрограммированный древними курс корабля, и не могут набрать адрес врат домой. Неуправляемый корабль несёт их в бесконечные просторы вселенной, где их ждут встречи с новым расами, новыми технологиями и новыми врагами.
Доп. информация: Русская озвучка взята из данной раздачи http://rutracker.org/forum/viewtopic.php?t=5034052
4 серия взята была из раздачи PGor так как исходная версия имела рассинхрон в оригинальной дорожке,который нельзя было исправить.
Исходники были взяты с немецкого UseNet портала.
Перевод и озвучание — студия «Кириллица» для телеканала AXN Sci-Fi. (Роли озвучивали Марина Бакина и Павел Кипнис)
Расширенные сцены пилотного эпизода "Воздух" озвучены студией "Кубик в Кубе"
Ссылка на предыдущие и альтернативные раздачи: http://rutracker.org/forum/viewforum.php?f=2394
Сэмпл: http://multi-up.com/1166890
Качество: BDRip
Формат: MKV
Видео: 1280x720 (16:9),25.000 fps,x264,5500 kbps
Аудио: Аудио #1: MPEG Layer 3, 48 kHz, 192 kbps CBR, Joint-Stereo | AXN Sci-Fi (Cyrillica)
Аудио 2: Аудио #2:AC3 5.1 @ 448 kbps,Dolby Digital | Original (english)
Субтитры: Отсутствуют
Реклама:
Отсутствует

Список серий

1.01-03 - Воздух (расширенная версия)
1.04 - Тьма (часть 1)
1.05 - Свет (часть 2)
1.06 - Вода
1.07 - Земля
1.08 - Время
1.09 - Жизнь
1.10 - Справедливость
1.11 - Космос (часть 1)
1.12 - Разделенные (часть 2)
1.13 - Вера
1.14 - Человек
1.15 - Потерянный
1.16 - Саботаж
1.17 - Боль
1.18 - Диверсия
1.19 - Вторжение (часть 1)
1.20 - Вторжение (часть 2)

MediaInfo

General
Unique ID : 215331927067452911186777523253210954237 (0xA1FF6BAE8CF7944D8D60A60F1646B9FD)
Complete name : K:\Stargate.Universe.Season.01.BDRip.AXN-Sci-Fi\SGU.s01e01-03.Air.extended.BDRip.Rus.Eng.AXN-Sci-Fi.mkv
Format : Matroska
Format version : Version 4 / Version 2
File size : 5.70 GiB
Duration : 2 h 12 min
Overall bit rate : 6 157 kb/s
Encoded date : UTC 2017-09-01 17:54:15
Writing application : mkvmerge v9.3.1 ('Mask Machine') 64bit
Writing library : libebml v1.3.4 + libmatroska v1.4.5
Video
ID : 1
Format : AVC
Format/Info : Advanced Video Codec
Format profile : High@L3.1
Format settings, CABAC : Yes
Format settings, ReFrames : 4 frames
Codec ID : V_MPEG4/ISO/AVC
Duration : 2 h 12 min
Bit rate : 5 289 kb/s
Width : 1 280 pixels
Height : 720 pixels
Display aspect ratio : 16:9
Frame rate mode : Constant
Frame rate : 25.000 FPS
Original frame rate : 23.976 (24000/1001) FPS
Color space : YUV
Chroma subsampling : 4:2:0
Bit depth : 8 bits
Scan type : Progressive
Bits/(Pixel*Frame) : 0.230
Stream size : 5.10 GiB (90%)
Title : x264 Video
Writing library : x264 core 84 r1416 fcf70c2
Encoding settings : cabac=1 / ref=5 / deblock=1:0:0 / analyse=0x3:0x113 / me=umh / subme=7 / psy=1 / psy_rd=1.0:0.0 / mixed_ref=1 / me_range=16 / chroma_me=1 / trellis=1 / 8x8dct=1 / cqm=0 / deadzone=21,11 / fast_pskip=0 / chroma_qp_offset=-2 / threads=6 / sliced_threads=0 / nr=0 / decimate=1 / mbaff=0 / constrained_intra=0 / bframes=3 / b_pyramid=1 / b_adapt=1 / b_bias=0 / direct=1 / wpredb=1 / wpredp=2 / keyint=250 / keyint_min=25 / scenecut=40 / intra_refresh=0 / rc_lookahead=40 / rc=2pass / mbtree=1 / bitrate=5289 / ratetol=1.0 / qcomp=0.60 / qpmin=10 / qpmax=51 / qpstep=4 / cplxblur=20.0 / qblur=0.5 / ip_ratio=1.40 / aq=1:1.00
Default : Yes
Forced : Yes
Audio #1
ID : 2
Format : MPEG Audio
Format version : Version 1
Format profile : Layer 3
Mode : Joint stereo
Mode extension : MS Stereo
Codec ID : A_MPEG/L3
Codec ID/Hint : MP3
Duration : 2 h 12 min
Bit rate mode : Constant
Bit rate : 192 kb/s
Channel(s) : 2 channels
Sampling rate : 48.0 kHz
Frame rate : 41.667 FPS (1152 spf)
Compression mode : Lossy
Delay relative to video : 40 ms
Stream size : 182 MiB (3%)
Writing library : LAME3.93
Language : Russian
Default : Yes
Forced : No
Audio #2
ID : 3
Format : AC-3
Format/Info : Audio Coding 3
Mode extension : CM (complete main)
Format settings, Endianness : Big
Codec ID : A_AC3
Duration : 2 h 12 min
Bit rate mode : Constant
Bit rate : 448 kb/s
Channel(s) : 6 channels
Channel positions : Front: L C R, Side: L R, LFE
Sampling rate : 48.0 kHz
Frame rate : 31.250 FPS (1536 spf)
Compression mode : Lossy
Delay relative to video : 24 ms
Stream size : 424 MiB (7%)
Language : English
Default : No
Forced : No

Скриншоты



Вы не можете начинать темы
Вы не можете отвечать на сообщения
Вы не можете редактировать свои сообщения
Вы не можете удалять свои сообщения
Вы не можете голосовать в опросах
Вы не можете прикреплять файлы к сообщениям
Вы можете скачивать файлы
!ВНИМАНИЕ!

Сайт не предоставляет электронные версии произведений, а занимается лишь коллекционированием и каталогизацией ссылок, присылаемых и публикуемых на форуме нашими читателями. Если вы являетесь правообладателем какого-либо представленного материала и не желаете, чтобы ссылка на него находилась в нашем каталоге, свяжитесь с нами, и мы незамедлительно удалим ее. Файлы для обмена на трекере предоставлены пользователями сайта, и администрация не несет ответственности за их содержание. Просьба не заливать файлы, защищенные авторскими правами, а также файлы нелегального содержания!

Искали программы, игры, дополнения, музыка mp3, аниме, аудио книги, журналы? Добро пожаловать на свободный торрент трекер Torrents, у нас можно скачать бесплатно, без смс и регистрации и прочих ограничений лучшие, отборные сборки программ, игр. Скачать торрентом не составит труда даже не опытному пользователю. Раздачи ежедневно обновляются, только лучшие и качественные раздачи, подробные описания и скриншоты. Огромная коллекция программ для работы со звуком, графикой, дизайном, а так же множество плагинов и инструментов к ним с подробной инструкцией и рекомендациями. Прошивки для навигаторов, карты. Разнообразные игры, для Windows, Linux. В коллекцие есть и старые игры любых жанров, Rpg, Action, Shooter, strategy Множество дополнений, модификаций, сценариев для популярных игр в жанре экш, рпг, гонки, стратегии, логические игры. Множество аддонов и сценариев для Microsoft Flight Simulator Большая коллекция книг, учебников. Если нет возможности купить печатное издание - смело скачивайте цифровую версию книги или, быть может, журнала. Не любите читать - можно загрузить бесплатно аудикнигу. Для веб дизайнеров и программистов так же найдется множество специализированного софта, таких как: редакторы с подсветкой, среды программирования, компоненты, системы управления базами данных, разнообразные скрипты и шаблоны. Не так давно у нас появился материал для автолюбителей и владельцев мото - оригинальные и неоригинальные каталоги запчастей, книги и журналы по ремонту и обслуживанию, видеоуроки, статьи по чип тюнингу, прошивкам. Процедура получения контента элементарная, достаточно просто скачать торрент файл и добавить его в загрузку в вашем торрент клиенте. Если у вас нет специального торрент клиента, вы можете его скачать у нас.

SitemapDescargar | Downloaden APK | Earth 2 (1994)