Красные браслеты / Braccialetti rossi / Сезон: 1 / Серии: 1-2 (6) (Джакомо Кампиотти / Giacomo Campiotti) [2014, Италия, драма, подростковый, медицинский, WEB-DLRip] Original Ita + Rus Sub (Элла Психоделика) 

Цитировать
Красные браслеты / Braccialetti rossi
Год выпуска: 2014
Страна: Италия
Жанр: медицинская драма, фильмы про подростков
Серии (количество): 6 х ~100 мин.
Перевод: субтитры (Элла Психоделика)
Субтитры: русские, неотключаемые
Режиссёр: Джакомо Кампиотти / Giacomo Campiotti
В ролях: Кармине Бускини (Carmine Buschini), Аврора Руффино (Aurora Ruffino), Брандо Пачитто (Brando Pacitto), Мирко Тровато (Mirko Trovato), Пио Луиджи Пишечелли (Pio Luigi Piscicelli), Лоренцо Гуиди (Lorenzo Guidi), Карлотта Натоли (Carlotta Natoli), Андреа Тидона (Andrea Tidona) и др.
Описание: Итальянская адаптация известного сериала «Красные браслеты», снятого по роману испанского писателя Альберто Эспинозы.
Действие сериала разворачивается в клинике, где живут и лечатся подростки, наши главные герои сериала. У каждого из них своя история, кто-то болен раком, кто-то лечится от других болезней. Все они разные и общая проблема сплачивает их, делает одной командой под названием «Общество красных браслетов»...
Сэмпл
Ссылка на предыдущие и альтернативные раздачи
Реклама отсутствует
Качество: WEB-DLRip
Формат: MP4
Видео: AVC1, 1280x720, 25.000 fps, 1487 Kbps
Аудио: AAC, 48 KHz, 2 ch, 153 Kbps
!!Внимание! Раздача ведётся путём добавления новых серий. Графика выхода серий нет, так как перевод зависит исключительно от финансовой поддержки!

MediaInfo

Общее
Полное имя : X:\Braccialetti rossi\Braccialetti rossi_s01e01.mp4
Формат : MPEG-4
Профиль формата : Base Media
Идентификатор кодека : isom
Размер файла : 1,16 Гбайт
Продолжительность : 1 ч. 41 м.
Режим общего битрейта : Переменный
Общий поток : 1644 Кбит/сек
Дата кодирования : UTC 2017-06-24 02:08:27
Дата пометки : UTC 2017-06-24 02:08:27
Видео
Идентификатор : 1
Формат : AVC
Формат/Информация : Advanced Video Codec
Профиль формата : High@L3.1
Параметр CABAC формата : Да
Параметр ReFrames формата : 4 кадра
Идентификатор кодека : avc1
Идентификатор кодека/Информация : Advanced Video Coding
Продолжительность : 1 ч. 41 м.
Битрейт : 1487 Кбит/сек
Максимальный битрейт : 13,8 Мбит/сек
Ширина : 1280 пикселей
Высота : 720 пикселей
Соотношение сторон : 16:9
Режим частоты кадров : Постоянный
Частота кадров : 25,000 кадров/сек
Цветовое пространство : YUV
Субдискретизация насыщенности : 4:2:0
Битовая глубина : 8 бит
Тип развёртки : Прогрессивная
Бит/(Пиксели*Кадры) : 0.065
Размер потока : 1,05 Гбайт (90%)
Библиотека кодирования : x264 core 130 r2273 b3065e6
Настройки программы : cabac=1 / ref=3 / deblock=1:0:0 / analyse=0x3:0x113 / me=hex / subme=7 / psy=1 / psy_rd=1.00:0.00 / mixed_ref=1 / me_range=16 / chroma_me=1 / trellis=1 / 8x8dct=1 / cqm=0 / deadzone=21,11 / fast_pskip=1 / chroma_qp_offset=-2 / threads=1 / lookahead_threads=1 / sliced_threads=0 / nr=0 / decimate=1 / interlaced=0 / bluray_compat=0 / constrained_intra=0 / bframes=3 / b_pyramid=2 / b_adapt=1 / b_bias=0 / direct=1 / weightb=1 / open_gop=0 / weightp=2 / keyint=250 / keyint_min=25 / scenecut=40 / intra_refresh=0 / rc_lookahead=40 / rc=crf / mbtree=1 / crf=23.0 / qcomp=0.60 / qpmin=0 / qpmax=69 / qpstep=4 / ip_ratio=1.40 / aq=1:1.00
Дата кодирования : UTC 2017-06-24 02:08:27
Дата пометки : UTC 2017-06-24 02:09:24
Аудио
Идентификатор : 2
Формат : AAC
Формат/Информация : Advanced Audio Codec
Профиль формата : LC
Идентификатор кодека : 40
Продолжительность : 1 ч. 41 м.
Вид битрейта : Переменный
Битрейт : 153 Кбит/сек
Максимальный битрейт : 197 Кбит/сек
Каналы : 2 канала
Расположение каналов : Front: L R
Частота : 48,0 КГц
Метод сжатия : С потерями
Размер потока : 111 Мбайт (9%)
Дата кодирования : UTC 2017-06-24 02:09:19
Дата пометки : UTC 2017-06-24 02:09:24

Скриншоты

Желаю всем приятного просмотра!
Вы не можете начинать темы
Вы не можете отвечать на сообщения
Вы не можете редактировать свои сообщения
Вы не можете удалять свои сообщения
Вы не можете голосовать в опросах
Вы не можете прикреплять файлы к сообщениям
Вы можете скачивать файлы
!ВНИМАНИЕ!

Сайт не предоставляет электронные версии произведений, а занимается лишь коллекционированием и каталогизацией ссылок, присылаемых и публикуемых на форуме нашими читателями. Если вы являетесь правообладателем какого-либо представленного материала и не желаете, чтобы ссылка на него находилась в нашем каталоге, свяжитесь с нами, и мы незамедлительно удалим ее. Файлы для обмена на трекере предоставлены пользователями сайта, и администрация не несет ответственности за их содержание. Просьба не заливать файлы, защищенные авторскими правами, а также файлы нелегального содержания!

Искали программы, игры, дополнения, музыка mp3, аниме, аудио книги, журналы? Добро пожаловать на свободный торрент трекер Torrents, у нас можно скачать бесплатно, без смс и регистрации и прочих ограничений лучшие, отборные сборки программ, игр. Скачать торрентом не составит труда даже не опытному пользователю. Раздачи ежедневно обновляются, только лучшие и качественные раздачи, подробные описания и скриншоты. Огромная коллекция программ для работы со звуком, графикой, дизайном, а так же множество плагинов и инструментов к ним с подробной инструкцией и рекомендациями. Прошивки для навигаторов, карты. Разнообразные игры, для Windows, Linux. В коллекцие есть и старые игры любых жанров, Rpg, Action, Shooter, strategy Множество дополнений, модификаций, сценариев для популярных игр в жанре экш, рпг, гонки, стратегии, логические игры. Множество аддонов и сценариев для Microsoft Flight Simulator Большая коллекция книг, учебников. Если нет возможности купить печатное издание - смело скачивайте цифровую версию книги или, быть может, журнала. Не любите читать - можно загрузить бесплатно аудикнигу. Для веб дизайнеров и программистов так же найдется множество специализированного софта, таких как: редакторы с подсветкой, среды программирования, компоненты, системы управления базами данных, разнообразные скрипты и шаблоны. Не так давно у нас появился материал для автолюбителей и владельцев мото - оригинальные и неоригинальные каталоги запчастей, книги и журналы по ремонту и обслуживанию, видеоуроки, статьи по чип тюнингу, прошивкам. Процедура получения контента элементарная, достаточно просто скачать торрент файл и добавить его в загрузку в вашем торрент клиенте. Если у вас нет специального торрент клиента, вы можете его скачать у нас.

SitemapMusical Instruments (Pre-1930) (1) | 致命标记 | Ishqeria (2018) Hindi 720p HDRip x264 DD5.1 ESubs – 1.1 GB