Алис Невер. Женщина-следователь / Alice Nevers, le juge est une femme / Сезон: 10 / Серии: 1 из 6 (Рене Манзор / René Manzor) [2011, Франция, детектив, драма, HDTVRip] Original + Rus Sub (Rossi 555) 

Цитировать
Алис Невер. Женщина-следователь / Alice Nevers, le juge est une femme
Сезон: 10, серия: 1 из 6
Год выпуска: 2011
Страна: Франция
Жанр: детектив, драма
Продолжительность: ~ 50 мин.
Сезон: 10
Серия: 1 из 6
Перевод: субтитры by Rossi 555
Режиссёр: Рене Манзор / René Manzor
В ролях: Марин Дельтерм, Жан-Мишель Тинивелли, Даниэль-Жан Коллоредо, Жан Делл, Гийом Карко, Ноам Моргенштерн, Ахмед Силла, Александр Варга, Флоранс Пернель, Пьер Сантини.
Описание: Французский детектив о женщине-следователе Алис Невер и её дружной команде помощников.
Доп. информация: Внимание! Раздача ведётся путём добавления новых серий.

скрытый текст

При каждом добавлении создаётся новый торрент. Чтобы начать докачку новой серии, пользователям необходимо сделать следующее:
1/ остановить скачивание,
2/ удалить старый торрент у себя из клиента (старые серии удалять не надо),
3/ скачать новый торрент и запустить его у себя в клиенте вместо старого, при этом указать клиенту путь в старую папку куда и должно происходить скачивание новых серий.
Ваш клиент при этом должен произвести хеширование (проверку) старой папки (если не производит сам - помогите ему сделать это). В результате он будет докачивать только те серии, которых у Вас ещё нет. Старые серии при этом не удаляются, а продолжают раздаваться!
Eсли Вы уже удалили старые серии, то предотвратить их повторную закачку можно, сняв галочки в соответствующих местах при запуске нового торрента. По возможности, желательно не удалять старые серии как можно дольше, чтобы релизёр не только продолжал раздавать старые серии, но и смог сконцентрироваться на новых.
Ссылка на предыдущие и альтернативные раздачи: http://rutracker.org/forum/tracker.php?f=189,2366&nm=Alice+Nevers
Сэмпл: http://yadi.sk/i/dpoQVc-h3KX5QA
Качество: HDTVRip
Формат: MP4
Видео: AVC, 1280/720, 16:9, 25.000 fps, 1.727 kbps
Аудио: AAC, 44.1 kHz, 2 ch, 192 kbps
Субтитры: внешние
Реклама: отсутствует

MediaInfo

General
Complete name : I:\Зарубежные сериалы\Алис Невер\10_1.HD.mp4
Format : MPEG-4
Format profile : Base Media / Version 2
Codec ID : mp42 (isom/mp42)
File size : 659 MiB
Duration : 47mn 58s
Overall bit rate mode : Variable
Overall bit rate : 1 922 Kbps
Encoded date : UTC 2017-07-21 08:22:46
Tagged date : UTC 2017-07-21 08:22:46
gsst : 0
gstd : 2878415
Video
ID : 1
Format : AVC
Format/Info : Advanced Video Codec
Format profile : High@L3.1
Format settings, CABAC : Yes
Format settings, ReFrames : 1 frame
Codec ID : avc1
Codec ID/Info : Advanced Video Coding
Duration : 47mn 58s
Bit rate : 1 727 Kbps
Maximum bit rate : 4 667 Kbps
Width : 1 280 pixels
Height : 720 pixels
Display aspect ratio : 16:9
Frame rate mode : Constant
Frame rate : 25.000 fps
Color space : YUV
Chroma subsampling : 4:2:0
Bit depth : 8 bits
Scan type : Progressive
Bits/(Pixel*Frame) : 0.075
Stream size : 593 MiB (90%)
Tagged date : UTC 2017-07-21 08:23:16
Color range : Limited
Color primaries : BT.709
Transfer characteristics : BT.709
Matrix coefficients : BT.709
Audio
ID : 2
Format : AAC
Format/Info : Advanced Audio Codec
Format profile : LC
Codec ID : 40
Duration : 47mn 58s
Bit rate mode : Variable
Bit rate : 192 Kbps
Maximum bit rate : 202 Kbps
Channel(s) : 2 channels
Channel positions : Front: L R
Sampling rate : 44.1 KHz
Frame rate : 43.066 fps (1024 spf)
Compression mode : Lossy
Stream size : 65.9 MiB (10%)
Title : IsoMedia File Produced by Google, 5-11-2011
Encoded date : UTC 2017-07-21 08:23:06
Tagged date : UTC 2017-07-21 08:23:16

Скриншоты

Вы не можете начинать темы
Вы не можете отвечать на сообщения
Вы не можете редактировать свои сообщения
Вы не можете удалять свои сообщения
Вы не можете голосовать в опросах
Вы не можете прикреплять файлы к сообщениям
Вы можете скачивать файлы
!ВНИМАНИЕ!

Сайт не предоставляет электронные версии произведений, а занимается лишь коллекционированием и каталогизацией ссылок, присылаемых и публикуемых на форуме нашими читателями. Если вы являетесь правообладателем какого-либо представленного материала и не желаете, чтобы ссылка на него находилась в нашем каталоге, свяжитесь с нами, и мы незамедлительно удалим ее. Файлы для обмена на трекере предоставлены пользователями сайта, и администрация не несет ответственности за их содержание. Просьба не заливать файлы, защищенные авторскими правами, а также файлы нелегального содержания!

Искали программы, игры, дополнения, музыка mp3, аниме, аудио книги, журналы? Добро пожаловать на свободный торрент трекер Torrents, у нас можно скачать бесплатно, без смс и регистрации и прочих ограничений лучшие, отборные сборки программ, игр. Скачать торрентом не составит труда даже не опытному пользователю. Раздачи ежедневно обновляются, только лучшие и качественные раздачи, подробные описания и скриншоты. Огромная коллекция программ для работы со звуком, графикой, дизайном, а так же множество плагинов и инструментов к ним с подробной инструкцией и рекомендациями. Прошивки для навигаторов, карты. Разнообразные игры, для Windows, Linux. В коллекцие есть и старые игры любых жанров, Rpg, Action, Shooter, strategy Множество дополнений, модификаций, сценариев для популярных игр в жанре экш, рпг, гонки, стратегии, логические игры. Множество аддонов и сценариев для Microsoft Flight Simulator Большая коллекция книг, учебников. Если нет возможности купить печатное издание - смело скачивайте цифровую версию книги или, быть может, журнала. Не любите читать - можно загрузить бесплатно аудикнигу. Для веб дизайнеров и программистов так же найдется множество специализированного софта, таких как: редакторы с подсветкой, среды программирования, компоненты, системы управления базами данных, разнообразные скрипты и шаблоны. Не так давно у нас появился материал для автолюбителей и владельцев мото - оригинальные и неоригинальные каталоги запчастей, книги и журналы по ремонту и обслуживанию, видеоуроки, статьи по чип тюнингу, прошивкам. Процедура получения контента элементарная, достаточно просто скачать торрент файл и добавить его в загрузку в вашем торрент клиенте. Если у вас нет специального торрент клиента, вы можете его скачать у нас.

SitemapMando ps4 dualshock 4 | David Guetta - Live at iTunes Festival (15-09-2012). | Deception Season 1 torrent