Кровавая гонка / Кровавая езда / Blood Drive / Сезон: 1 / Серии: 1-13 из 13 (Дэвид Стрейтон, Мира Менон, Лин Оэдин) [2017, США, Ужасы, фантастика, драма, WEB-DLRip] DVO (Gears Media) + Original 

Цитировать
Кровавая езда / Blood Drive
Год выпуска: 2017
Страна: США
Жанр: Ужасы, фантастика, драма
Продолжительность: ~ 00:45:00
Перевод: Профессиональный (двухголосый закадровый) Gears Media
Режиссёр: Дэвид Стрейтон, Мира Менон, Лин Оэдин
В ролях: Алан Ричсон, Кристина Очоа, Марама Корлетт, Колин Каннингэм, Даррен Кент, Эндрю Моргадо, Шон Майкл, Карел Нель, Эйдан Уайток и др.
Описание:
Действие сериала «Кровавая езда» разворачивается в альтернативном постапокалиптическом будущем в Лос-Анджелесе. Нехватка топлива привела к тому, что люди изобрели машины, работающие на человеческой крови. В центре событий — хороший коп Артур Бэйли, который вынужден принять участие в подпольной смертельно опасной гонке через всю страну на как раз таком автомобиле. Его партнером становится абсолютно безумная девушка, готовая на все ради победы. В пути героев ждет встреча с каннибалами, монстрами, адептами кровавых культов, нимфоманками, амазонками и прочими сомнительными личностями.
Ссылка на предыдущие и альтернативные раздачи: http://rutracker.org/forum/tracker.php?f=189,2366,842,235&nm=Blood+Drive
Сэмпл: http://multi-up.com/1158268
Качество: WEB-DLRip
Формат: AVI
Видео: XviD, 720x400 at 23.976 fps, ~1500 kbps avg
Аудио1: Russian, MP3, 48 kHz, 2 ch, 128 kbps
Аудио2: English, MP3, 48 kHz, 2 ch, 128 kbps
Субтитры: нет
Реклама: аудио (два раза, в начале и конце, по 12 сек.)

MediaInfo

Format : AVI
Format/Info : Audio Video Interleave
File size : 564 MiB
Duration : 44 min 33 s
Overall bit rate : 1 769 kb/s
Movie name : Blood.Drive.S01E01.720p.WEB-DL.DD5.1.H264-RARBG
Writing application : Lavf56.30.100
Video
ID : 0
Format : xvid
Codec ID : xvid
Duration : 44 min 33 s
Bit rate : 1 492 kb/s
Width : 720 pixels
Height : 400 pixels
Display aspect ratio : 16:9
Frame rate : 23.976 (24000/1001) FPS
Scan type : Progressive
Bits/(Pixel*Frame) : 0.216
Stream size : 476 MiB (84%)
Audio #1
ID : 1
Format : MPEG Audio
Format version : Version 1
Format profile : Layer 3
Mode : Joint stereo
Mode extension : MS Stereo
Codec ID : 55
Codec ID/Hint : MP3
Duration : 44 min 33 s
Bit rate mode : Constant
Bit rate : 128 kb/s
Channel(s) : 2 channels
Sampling rate : 48.0 kHz
Compression mode : Lossy
Stream size : 40.8 MiB (7%)
Alignment : Aligned on interleaves
Interleave, duration : 24 ms (0.58 video frame)
Interleave, preload duratio : 24 ms
Title : Gears Media
Writing library : LAME3.99.5ЄЄЄЄЄЄЄЄЄЄ
Audio #2
ID : 2
Format : MPEG Audio
Format version : Version 1
Format profile : Layer 3
Mode : Joint stereo
Mode extension : MS Stereo
Codec ID : 55
Codec ID/Hint : MP3
Duration : 44 min 33 s
Bit rate mode : Constant
Bit rate : 128 kb/s
Channel(s) : 2 channels
Sampling rate : 48.0 kHz
Compression mode : Lossy
Stream size : 40.8 MiB (7%)
Alignment : Aligned on interleaves
Interleave, duration : 24 ms (0.58 video frame)
Interleave, preload duratio : 24 ms

Скриншоты

Внимание! Раздача ведётся путём добавления новых серий

Внимание! Раздача ведётся путём добавления новых серий; при каждом добавлении создётся новый торрент. Чтобы начать докачку новой серии, пользователям необходимо сделать следующее:
(1) остановить скачивание,
(2) удалить старый торрент у себя из клиента (старые серии удалять не надо),
(3) скачать новый торрент и запустить его у себя в клиенте вместо старого, при этом указать клиенту путь в старую папку куда и должно происходить скачивание новых серий.
Ваш клиент при этом должен произвести хеширование (проверку) старой папки (если не производит сам - помогите ему сделать это), и будет докачивать только те серии которых у вас ещё нет. Старые серии при этом не удаляются, а продолжают раздаваться!
Eсли вы уже удалили старые серии, то предотвратить повторную закачку старых серий можно, отжав галочку в соответсвующих местах при запуске нового торрента. По возможности, желательно не удалять старые серии как можно дольше чтобы релизёр не столько продолжал раздавать старые серии, а смог сконцентрироваться на новых.
Вы не можете начинать темы
Вы не можете отвечать на сообщения
Вы не можете редактировать свои сообщения
Вы не можете удалять свои сообщения
Вы не можете голосовать в опросах
Вы не можете прикреплять файлы к сообщениям
Вы можете скачивать файлы
!ВНИМАНИЕ!

Сайт не предоставляет электронные версии произведений, а занимается лишь коллекционированием и каталогизацией ссылок, присылаемых и публикуемых на форуме нашими читателями. Если вы являетесь правообладателем какого-либо представленного материала и не желаете, чтобы ссылка на него находилась в нашем каталоге, свяжитесь с нами, и мы незамедлительно удалим ее. Файлы для обмена на трекере предоставлены пользователями сайта, и администрация не несет ответственности за их содержание. Просьба не заливать файлы, защищенные авторскими правами, а также файлы нелегального содержания!

Искали программы, игры, дополнения, музыка mp3, аниме, аудио книги, журналы? Добро пожаловать на свободный торрент трекер Torrents, у нас можно скачать бесплатно, без смс и регистрации и прочих ограничений лучшие, отборные сборки программ, игр. Скачать торрентом не составит труда даже не опытному пользователю. Раздачи ежедневно обновляются, только лучшие и качественные раздачи, подробные описания и скриншоты. Огромная коллекция программ для работы со звуком, графикой, дизайном, а так же множество плагинов и инструментов к ним с подробной инструкцией и рекомендациями. Прошивки для навигаторов, карты. Разнообразные игры, для Windows, Linux. В коллекцие есть и старые игры любых жанров, Rpg, Action, Shooter, strategy Множество дополнений, модификаций, сценариев для популярных игр в жанре экш, рпг, гонки, стратегии, логические игры. Множество аддонов и сценариев для Microsoft Flight Simulator Большая коллекция книг, учебников. Если нет возможности купить печатное издание - смело скачивайте цифровую версию книги или, быть может, журнала. Не любите читать - можно загрузить бесплатно аудикнигу. Для веб дизайнеров и программистов так же найдется множество специализированного софта, таких как: редакторы с подсветкой, среды программирования, компоненты, системы управления базами данных, разнообразные скрипты и шаблоны. Не так давно у нас появился материал для автолюбителей и владельцев мото - оригинальные и неоригинальные каталоги запчастей, книги и журналы по ремонту и обслуживанию, видеоуроки, статьи по чип тюнингу, прошивкам. Процедура получения контента элементарная, достаточно просто скачать торрент файл и добавить его в загрузку в вашем торрент клиенте. Если у вас нет специального торрент клиента, вы можете его скачать у нас.

Sitemap2019-01-15 Ticketmaster Event Tickets Ticketmaster Tickets - Live Event Tickets for Concerts, Festivals, Sports, Music | islam4all | Descargar