Тайны следствия-7 / Сезон: 7 / Серии: 1 -12 (12) (Михаил Вассербаум) [2007, Детектив, криминал, драма, WEBRip] 

Цитировать
Тайны следствия-7
Год выпуска: 2007
Производство: Россия, Студия "Панорама"
Жанр: Детектив, криминал, драма
Продолжительность: 00:47:00
Субтитры: нету
Режиссёр: Михаил Вассербаум
В ролях: Анна Ковальчук, Сергей Барышев, Вячеслав Захаров, Александр Новиков (III), Светлана Щедрина, Александр Шпилько, Эмилия Спивак, Юлия Яковлева, Андрей Шарков, Олег Алмазов, Игорь Григорьев (IV), Георгий Тополага, Светлана Смирнова-Кацагаджиева, Наталья Андреева, Ольга Чацкая, Александр Горбанёв, Юрий Дормидонтов, Евгений Филатов, Игорь Николаев (II), Евгений Чудаков, Мирослав Малич, Анатолий Петров, Анатолий Журавин, Александр Блок, Владислав Резник, Алла Довлатова, Михаил Вассербаум, Станислав Концевич, Александр Чевычелов
Описание: Заместитель районного прокурора Мария Швецова по-прежнему на посту. В новых сериях ей опять придется столкнуться с запутанными детективными историями и изощренными преступлениями. Однако как бы ни были изобретательны нарушители закона, им не удастся уйти от справедливого возмездия. Каждый новый рабочий день готовит для сотрудников районной прокуратуры новые испытания и головоломные дела, чреватые неожиданными поворотами расследования, нешуточными опасностями и непредсказуемыми развязками. Забот и обязанностей у Маши прибавляется с каждым днем, ей все труднее уделять должное время семье и детям. Даже такой любящий и понимающий супруг, как Луганский, начинает терять терпение. Кроме того, у Швецовой возникают определенные проблемы с начальством: сменилось руководство, и новый заместитель прокурора города имеет к ней серьезные претензии, от которых Маше не укрыться даже за стенами собственного кабинета и не отгородиться стопкой уголовных дел. К счастью, друзья из районного УВД и ОРБ всегда рядом и готовы поддержать принципиальную коллегу в трудную минуту.
Все раздачи сериала: http://rutracker.org/forum/tracker.php?f=9&nm=%D2%E0%E9%ED%FB+%F1%EB%E5%E4%F1%F2%E2%E8%FF
Сэмпл: http://www.sendspace.com/file/1gxjvl
Качество: WEBRip
Формат: AVI
Видео кодек: XviD
Аудио кодек: AC3
Видео: XviD; 1685 Кбит/сек; 720х544 (4:3); 25,000 кадров/сек; Бит/(Пиксели*Кадры) :0.172
Аудио: AC-3; 192 Кбит/сек; 2 канала; 48,0 КГц

MI

Общее
Полное имя : E:\закачки\Тайны следствия 7 rutracker.org[]\1. Чёрная магия (1 сер.).avi
Формат : AVI
Формат/Информация : Audio Video Interleave
Размер файла : 643 Мбайт
Продолжительность : 47 м.
Общий поток : 1886 Кбит/сек
Программа кодирования : VirtualDubMod 1.5.10.2 (build 2540/release)
Библиотека кодирования : VirtualDubMod build 2540/release
Видео
Идентификатор : 0
Формат : MPEG-4 Visual
Профиль формата : Advanced Simple@L5
Параметр BVOP формата : 1
Параметр QPel формата : Нет
Параметр GMC формата : Без точки перехода
Параметр матрицы формата : Default (H.263)
Идентификатор кодека : XVID
Идентификатор кодека/Подсказка : XviD
Продолжительность : 47 м.
Битрейт : 1685 Кбит/сек
Ширина : 720 пикселей
Высота : 544 пикселя
Соотношение сторон : 4:3
Частота кадров : 25,000 кадров/сек
Цветовое пространство : YUV
Субдискретизация насыщенности : 4:2:0
Битовая глубина : 8 бит
Тип развёртки : Прогрессивная
Метод сжатия : С потерями
Бит/(Пиксели*Кадры) : 0.172
Размер потока : 574 Мбайт (89%)
Библиотека кодирования : XviD 1.2.1 (UTC 2008-12-04)
Аудио
Идентификатор : 1
Формат : AC-3
Формат/Информация : Audio Coding 3
Расширение режима : CM (complete main)
Параметр Endianness формата : Big
Идентификатор кодека : 2000
Продолжительность : 47 м.
Вид битрейта : Постоянный
Битрейт : 192 Кбит/сек
Каналы : 2 канала
Расположение каналов : Front: L R
Частота : 48,0 КГц
Битовая глубина : 16 бит
Метод сжатия : С потерями
Размер потока : 65,4 Мбайт (10%)
Выравнивание : Соединение по промежуткам
Продолжительность промежутка : 40 мс. (1,00 видеокадр)
Время предзагрузки промежутка : 512 мс.

Скриншоты

Релиз Сме_ша_рик
Вы не можете начинать темы
Вы не можете отвечать на сообщения
Вы не можете редактировать свои сообщения
Вы не можете удалять свои сообщения
Вы не можете голосовать в опросах
Вы не можете прикреплять файлы к сообщениям
Вы можете скачивать файлы
!ВНИМАНИЕ!

Сайт не предоставляет электронные версии произведений, а занимается лишь коллекционированием и каталогизацией ссылок, присылаемых и публикуемых на форуме нашими читателями. Если вы являетесь правообладателем какого-либо представленного материала и не желаете, чтобы ссылка на него находилась в нашем каталоге, свяжитесь с нами, и мы незамедлительно удалим ее. Файлы для обмена на трекере предоставлены пользователями сайта, и администрация не несет ответственности за их содержание. Просьба не заливать файлы, защищенные авторскими правами, а также файлы нелегального содержания!

Искали программы, игры, дополнения, музыка mp3, аниме, аудио книги, журналы? Добро пожаловать на свободный торрент трекер Torrents, у нас можно скачать бесплатно, без смс и регистрации и прочих ограничений лучшие, отборные сборки программ, игр. Скачать торрентом не составит труда даже не опытному пользователю. Раздачи ежедневно обновляются, только лучшие и качественные раздачи, подробные описания и скриншоты. Огромная коллекция программ для работы со звуком, графикой, дизайном, а так же множество плагинов и инструментов к ним с подробной инструкцией и рекомендациями. Прошивки для навигаторов, карты. Разнообразные игры, для Windows, Linux. В коллекцие есть и старые игры любых жанров, Rpg, Action, Shooter, strategy Множество дополнений, модификаций, сценариев для популярных игр в жанре экш, рпг, гонки, стратегии, логические игры. Множество аддонов и сценариев для Microsoft Flight Simulator Большая коллекция книг, учебников. Если нет возможности купить печатное издание - смело скачивайте цифровую версию книги или, быть может, журнала. Не любите читать - можно загрузить бесплатно аудикнигу. Для веб дизайнеров и программистов так же найдется множество специализированного софта, таких как: редакторы с подсветкой, среды программирования, компоненты, системы управления базами данных, разнообразные скрипты и шаблоны. Не так давно у нас появился материал для автолюбителей и владельцев мото - оригинальные и неоригинальные каталоги запчастей, книги и журналы по ремонту и обслуживанию, видеоуроки, статьи по чип тюнингу, прошивкам. Процедура получения контента элементарная, достаточно просто скачать торрент файл и добавить его в загрузку в вашем торрент клиенте. Если у вас нет специального торрент клиента, вы можете его скачать у нас.

SitemapThe Fosters (71) | samsung link | 2018-10-22 23:08