Династия / Dynasty / Сезон: 3 / Серии: 1-24 (24) (Ирвинг Мур / Irving J. Moore) [1982-1983, США, мелодрама, DVDRip] MVO ("Конфетти") + Original 

Цитировать
Династия (3 сезон)
Dynasty (season 3)
Страна: США
Жанр: мелодрама
Год выпуска: 1982-1983
Продолжительность: ~00:45:00 мин.
Перевод: Профессиональный (многоголосый, закадровый) ("Конфетти")
Русские субтитры: Нет-Режиссер:
Ирвинг Мур / Irving J. Moore
В ролях:
Джон Форсайт, Линда Эванс, Памела Сью Мартин, Памела Беллвуд, Джон Джеймс, Ллойд Бочнер, Гордон Томсон, Кэтлин Бэллер, Джеффри Скотт, Хэзер Локлир, Ли Бергер, Джек Коулмэн, Джоан Коллинз и др.
Описание:
Сериал, считающийся классикой американских сериалов. Самый успешный сериал за всю историю американского телевидения. Непревзойденный сериал!!! "Династия" во всем мире становилась лидером рейтингов популярности и зрительских симпатий. Еще бы: ведь "Династию" снял известный американский продюсер Аарон Спеллинг, не поскупившийся на средства и пригласивший видных американских актеров. Знаменитые актеры не подвели, блистательно сыграв персонажей сериала. И не стоит говорить, что сюжет истории жизни американских миллионеров, безусловно, оказался интересен телезрителям всего мира. И до сих пор рекорд "Династии" не побит, сериал продолжают закупать, в разных странах и по сей день, так как телезрители вновь и вновь хотят увидеть любимый сериал и переживать за сложными жизненными ситуациями, происходящими с его героями.-Качество: DVDRip
Формат: AVI
Видео кодек: XviD
Аудио кодек: AC3
Видео: Xvid / 688x512 / 4:3 / ~1450 kbps / 25.000 fps / 0.165 bit/pixel
Аудио #1: MVO / AC3 / 48.0 KHz / 192 kbps / 2 channels
Аудио #2: Original / AC3 / 48.0 KHz / 192 kbps / 2 channels
Субтитры: отсутствуют- -Релиз группы:
Подготовка видео и работа со звуком: Саша Эндик
Огромная благодарность за предоставленные серии на VHS: Елене Соловьёвой
-

MediaInfo

Общее
Полное имя : ...\Династия (3 сезон)\(3x01) The Plea.avi
Формат : AVI
Формат/Информация : Audio Video Interleave
Размер файла : 600 Мбайт
Продолжительность : 45 м.
Общий поток : 1848 Кбит/сек
Программа кодирования : VirtualDubMod 1.5.10.3 | www.virtualdub-fr.org || (build 2550/release)
Библиотека кодирования : VirtualDubMod build 2550/release
Видео
Идентификатор : 0
Формат : MPEG-4 Visual
Профиль формата : Advanced Simple@L5
Параметр BVOP формата : 2
Параметр QPel формата : Нет
Параметр GMC формата : Без точки перехода
Параметр матрицы формата : Default (MPEG)
Идентификатор кодека : XVID
Идентификатор кодека/Подсказка : XviD
Продолжительность : 45 м.
Битрейт : 1450 Кбит/сек
Ширина : 688 пикселей
Высота : 512 пикселей
Соотношение сторон : 4:3
Частота кадров : 25,000 кадров/сек
Цветовое пространство : YUV
Субдискретизация насыщенности : 4:2:0
Битовая глубина : 8 бит
Тип развёртки : Прогрессивная
Метод сжатия : С потерями
Бит/(Пиксели*Кадры) : 0.165
Размер потока : 471 Мбайт (78%)
Библиотека кодирования : XviD 73
Аудио #1
Идентификатор : 1
Формат : AC-3
Формат/Информация : Audio Coding 3
Расширение режима : CM (complete main)
Параметр Endianness формата : Big
Идентификатор кодека : 2000
Продолжительность : 45 м.
Вид битрейта : Постоянный
Битрейт : 192 Кбит/сек
Каналы : 2 канала
Расположение каналов : Front: L R
Частота : 48,0 КГц
Битовая глубина : 16 бит
Метод сжатия : С потерями
Размер потока : 62,4 Мбайт (10%)
Выравнивание : Разделение по промежуткам
Продолжительность промежутка : 40 мс. (1,00 видеокадр)
Время предзагрузки промежутка : 500 мс.
Аудио #2
Идентификатор : 2
Формат : AC-3
Формат/Информация : Audio Coding 3
Расширение режима : CM (complete main)
Параметр Endianness формата : Big
Идентификатор кодека : 2000
Продолжительность : 45 м.
Вид битрейта : Постоянный
Битрейт : 192 Кбит/сек
Каналы : 2 канала
Расположение каналов : Front: L R
Частота : 48,0 КГц
Битовая глубина : 16 бит
Метод сжатия : С потерями
Размер потока : 62,4 Мбайт (10%)
Выравнивание : Разделение по промежуткам
Продолжительность промежутка : 40 мс. (1,00 видеокадр)
Время предзагрузки промежутка : 500 мс.

Список серий

1. The Plea
2. The Roof
3. The Wedding
4. The Will
5. The Siblings
6. Mark
7. Kirby
8. La Mirage
9. Acapulco
10. The Locket
11. The Search
12. Samantha
13. Danny
14. Madness
15. Two Flights to Haiti
16. The Mirror
17. Battle Lines
18. Reunion in Singapore
19. Fathers and Sons
20. The Downstairs Bride
21. The Vote
22. The Dinner
23. The Threat
24. The Cabin

Ссылка на предыдущие и альтернативные раздачи

Все раздачи - Династия
DVDRip - Династия (перевод "Конфетти")
DVDRip - Династия (перевод CBS Drama)

Скриншоты


Вы не можете начинать темы
Вы не можете отвечать на сообщения
Вы не можете редактировать свои сообщения
Вы не можете удалять свои сообщения
Вы не можете голосовать в опросах
Вы не можете прикреплять файлы к сообщениям
Вы можете скачивать файлы
!ВНИМАНИЕ!

Сайт не предоставляет электронные версии произведений, а занимается лишь коллекционированием и каталогизацией ссылок, присылаемых и публикуемых на форуме нашими читателями. Если вы являетесь правообладателем какого-либо представленного материала и не желаете, чтобы ссылка на него находилась в нашем каталоге, свяжитесь с нами, и мы незамедлительно удалим ее. Файлы для обмена на трекере предоставлены пользователями сайта, и администрация не несет ответственности за их содержание. Просьба не заливать файлы, защищенные авторскими правами, а также файлы нелегального содержания!

Искали программы, игры, дополнения, музыка mp3, аниме, аудио книги, журналы? Добро пожаловать на свободный торрент трекер Torrents, у нас можно скачать бесплатно, без смс и регистрации и прочих ограничений лучшие, отборные сборки программ, игр. Скачать торрентом не составит труда даже не опытному пользователю. Раздачи ежедневно обновляются, только лучшие и качественные раздачи, подробные описания и скриншоты. Огромная коллекция программ для работы со звуком, графикой, дизайном, а так же множество плагинов и инструментов к ним с подробной инструкцией и рекомендациями. Прошивки для навигаторов, карты. Разнообразные игры, для Windows, Linux. В коллекцие есть и старые игры любых жанров, Rpg, Action, Shooter, strategy Множество дополнений, модификаций, сценариев для популярных игр в жанре экш, рпг, гонки, стратегии, логические игры. Множество аддонов и сценариев для Microsoft Flight Simulator Большая коллекция книг, учебников. Если нет возможности купить печатное издание - смело скачивайте цифровую версию книги или, быть может, журнала. Не любите читать - можно загрузить бесплатно аудикнигу. Для веб дизайнеров и программистов так же найдется множество специализированного софта, таких как: редакторы с подсветкой, среды программирования, компоненты, системы управления базами данных, разнообразные скрипты и шаблоны. Не так давно у нас появился материал для автолюбителей и владельцев мото - оригинальные и неоригинальные каталоги запчастей, книги и журналы по ремонту и обслуживанию, видеоуроки, статьи по чип тюнингу, прошивкам. Процедура получения контента элементарная, достаточно просто скачать торрент файл и добавить его в загрузку в вашем торрент клиенте. Если у вас нет специального торрент клиента, вы можете его скачать у нас.

Sitemap1x92 Dragon Ball Super | 설 특집 대국민 토크쇼 안녕하세요.E399.190204.720p NEXT.mp4 | Witchtrap.1989.German.DL.1080p.BluRay.x264-SPiCY