Место преступления: Нью-Йорк / CSI: NY / Сезон: 7 / Серии: 6-22 (22) (Дэвид Вон Энкен) [2010-2011, США, детектив,триллер, драма, HDTVRip] VO (nikolas) 

Цитировать
Место преступления Нью-Йорк / CSI: NY
Год выпуска: 2010-2011
Страна: США
Жанр: детектив, триллер, драма
Продолжительность: 17 x 00:41:00
Перевод: любительский одноголосый закадровый
Субтитры: отсутствуют
Режиссёр: Дэвид Вон Энкен
В ролях: Гари Синис ,Села Уордс, Кармин Джевинацо, Анна Белкнап, Хил Харпер, Эдди Кэхил
Описание: Продолжение сериала о работе криминалистов в Нью-Йорке. Над раскрытием преступлений работает команда детективов, вооружённых самыми последними разработками в различных областях науки и техники. Команду возглавляет детектив Мак Тэйлор, преданный своему делу специалист, который убеждён, что в преступлениях всё взаимосвязано и, если потянуть за едва видимую нить, можно распутать даже самый сложный клубок событий. Мак вместе с другими членами команды CSI ведет отчаянную борьбу против преступности в каменных джунглях Нью-Йорка.
Доп. информация: Озвучено поклонником сериала(nikolas)
Ссылка на предыдущие и альтернативные раздачи: http://rutracker.org/forum/viewtopic.php?t=3248948
Сэмпл: http://multi-up.com/443047
Качество: HDTVRip
Формат: AVI
Видео кодек: XviD
Аудио кодек: MP3
Видео: 624x352 (1.77:1), 23.976 fps, XviD build 50 ~975 kbps avg, 0.19 bit/pixel
Аудио: 44.100 kHz, MPEG Layer 3, 2 ch, ~319.74 kbps avg

MI

General
Complete name : D:\CSI NY 0711.avi
Format : AVI
Format/Info : Audio Video Interleave
File size : 410 MiB
Duration : 44mn 1s
Overall bit rate : 1 301 Kbps
Writing application : VirtualDubMod 1.5.10.2 (build 2540/release)
Writing library : VirtualDubMod build 2540/release
Video
ID : 0
Format : MPEG-4 Visual
Format profile : Advanced Simple@L5
Format settings, BVOP : Yes
Format settings, QPel : No
Format settings, GMC : No warppoints
Format settings, Matrix : Default (H.263)
Codec ID : XVID
Codec ID/Hint : XviD
Duration : 44mn 1s
Bit rate : 973 Kbps
Width : 624 pixels
Height : 352 pixels
Display aspect ratio : 16:9
Frame rate : 23.976 fps
Color space : YUV
Chroma subsampling : 4:2:0
Bit depth : 8 bits
Scan type : Progressive
Bits/(Pixel*Frame) : 0.185
Stream size : 306 MiB (75%)
Writing library : XviD 1.2.1 (UTC 2008-12-04)
Audio
ID : 1
Format : MPEG Audio
Format version : Version 1
Format profile : Layer 3
Mode : Joint stereo
Codec ID : 55
Codec ID/Hint : MP3
Duration : 43mn 58s
Bit rate mode : Constant
Bit rate : 320 Kbps
Channel(s) : 2 channels
Sampling rate : 44.1 KHz
Stream size : 101 MiB (25%)
Alignment : Aligned on interleaves
Interleave, duration : 42 ms (1.00 video frame)
Interleave, preload duration : 522 ms
Writing library : LAME3.96

Скриншоты

Вы не можете начинать темы
Вы не можете отвечать на сообщения
Вы не можете редактировать свои сообщения
Вы не можете удалять свои сообщения
Вы не можете голосовать в опросах
Вы не можете прикреплять файлы к сообщениям
Вы можете скачивать файлы
!ВНИМАНИЕ!

Сайт не предоставляет электронные версии произведений, а занимается лишь коллекционированием и каталогизацией ссылок, присылаемых и публикуемых на форуме нашими читателями. Если вы являетесь правообладателем какого-либо представленного материала и не желаете, чтобы ссылка на него находилась в нашем каталоге, свяжитесь с нами, и мы незамедлительно удалим ее. Файлы для обмена на трекере предоставлены пользователями сайта, и администрация не несет ответственности за их содержание. Просьба не заливать файлы, защищенные авторскими правами, а также файлы нелегального содержания!

Искали программы, игры, дополнения, музыка mp3, аниме, аудио книги, журналы? Добро пожаловать на свободный торрент трекер Torrents, у нас можно скачать бесплатно, без смс и регистрации и прочих ограничений лучшие, отборные сборки программ, игр. Скачать торрентом не составит труда даже не опытному пользователю. Раздачи ежедневно обновляются, только лучшие и качественные раздачи, подробные описания и скриншоты. Огромная коллекция программ для работы со звуком, графикой, дизайном, а так же множество плагинов и инструментов к ним с подробной инструкцией и рекомендациями. Прошивки для навигаторов, карты. Разнообразные игры, для Windows, Linux. В коллекцие есть и старые игры любых жанров, Rpg, Action, Shooter, strategy Множество дополнений, модификаций, сценариев для популярных игр в жанре экш, рпг, гонки, стратегии, логические игры. Множество аддонов и сценариев для Microsoft Flight Simulator Большая коллекция книг, учебников. Если нет возможности купить печатное издание - смело скачивайте цифровую версию книги или, быть может, журнала. Не любите читать - можно загрузить бесплатно аудикнигу. Для веб дизайнеров и программистов так же найдется множество специализированного софта, таких как: редакторы с подсветкой, среды программирования, компоненты, системы управления базами данных, разнообразные скрипты и шаблоны. Не так давно у нас появился материал для автолюбителей и владельцев мото - оригинальные и неоригинальные каталоги запчастей, книги и журналы по ремонту и обслуживанию, видеоуроки, статьи по чип тюнингу, прошивкам. Процедура получения контента элементарная, достаточно просто скачать торрент файл и добавить его в загрузку в вашем торрент клиенте. Если у вас нет специального торрент клиента, вы можете его скачать у нас.

Sitemap03.02.1906:35 Uhr Microsoft Toolkit Collection Pack 01 2019Activation 0 / 0385 Hits VID P2P DDL 0 Kommentare | MX vs ATV Untamed [Jtag-Rgh][Inglés][2.22 GB][Mega+] | Próxima »