Два с половиной человека / Two and a Half Men / Сезон 9 / Серии 1-24 (24) (Ли Аронсон, Чак Лорри) [2011, США, комедия, WEB-DLRip] VO (Jimmy J) 

Цитировать
-Два с половиной человека
Two and a half Men
- Год выхода в эфир: 2011
Страна: США
Жанр: комедия
Продолжительность: ~ 00:23:00
Перевод: Любительский (одноголосый, закадровый) /Jimmy J/
Субтитры: Отсутствуют
Режиссер: Ли Аронсон, Чак Лорри-Роли озвучивали: Эштон Катчер, Джон Крайер, Энгус Т.Джонс, Кончата Феррелл и др.-Описание: Спустя восемь лет, после того как в особняке на побережье Беверли Хиллз сумбурно поселился "свежеразведенный" бездомный Алан Харпер, не стало его брата - хозяина особняка, местного бабника и знатного алкоголика Чарли. Но ушли ли с ним приключения семейства Харперов? Вряд ли, т.к. новым хозяином шикарного жилища становится очень незаурядная личность - некий Уолден Шмидт.- Все раздачи сериала- -Качество: WEB-DLRip
Формат: AVI [сэмпл]
Видео кодек: XviD
Аудио кодек: MP3
Видео: 720*400 (1.80), 23.976 fps, XviD MPEG-4, ~1500 kbps, 0.216 bit/pixel
Аудио: 48 kHz, MPEG Layer 3, 2 ch, ~128.00 kbps avg |Jimmy J|
Аудио: 48 kHz, MPEG Layer 3, 2 ch, ~128.00 kbps avg |Оригинал|-- -

Список серий

-- 01 - Nice to Meet You, Walden Schmidt / Приятно познакомиться, Уолден Шмидт
- 02 - People Who Love Peepholes / Люди, которым нравятся глазки
- 03 - Big Girls Don't Throw Food / Взрослые девочки не бросаются едой
- 04 - Nine Magic Fingers / Девять волшебных пальчиков
- 05 - A Giant Cat Holding Churro
- 06 - The Squat and The Hover
- 07 - Those Fancy Japanese Toilets
- 08 - Thank You For The Intercourse
- 09 - Frodo’s Headshots
- 10 - Fishbowl Full of Glass Eyes
- 11 - A Lovely Landing Strip
- 12 - One False Move, Zimbabwe!
- 13 - Slowly and in a Circular Fashion
- 14 - A Possum on Chemo
- 15 - The Duchess of Dull-In-Sack
- 16 - Sips, Sonnets and Sodomy
- 17 - Not In My Mouth
- 18 - The War Against Gingivitis
- 19 - Palmdale, Ech
- 20 - Grandma's Pie
- 21 - Mr. Hose Says 'Yes'
- 22 - Why We Gave Up Women
- 23 - The Straw in My Donut Hole
- 24 - Oh Look! Al-Qaeda!-
-

MEDiA iNFO

General
Complete name                    : E:\Two and a half Men - Season 9 [WEB-DLRip] (Jimmy J)\Two.and.a.half.Men.S09E01.WEB-DLRip.Rus.[Jimmy.J].Eng.avi
Format                           : AVI
Format/Info                      : Audio Video Interleave
File size                        : 271 MiB
Duration                         : 21mn 29s
Overall bit rate                 : 1 764 Kbps
Writing application              : VirtualDubMod 1.5.10.2 (build 2540/release)
Writing library                  : VirtualDubMod build 2540/release
Video
ID                               : 0
Format                           : MPEG-4 Visual
Format profile                   : Advanced Simple@L5
Format settings, BVOP            : 2
Format settings, QPel            : No
Format settings, GMC             : No warppoints
Format settings, Matrix          : Default (MPEG)
Muxing mode                      : Packed bitstream
Codec ID                         : XVID
Codec ID/Hint                    : XviD
Duration                         : 21mn 29s
Bit rate                         : 1 494 Kbps
Width                            : 720 pixels
Height                           : 400 pixels
Display aspect ratio             : 16:9
Frame rate                       : 23.976 fps
Resolution                       : 8 bits
Colorimetry                      : 4:2:0
Scan type                        : Progressive
Bits/(Pixel*Frame)               : 0.216
Stream size                      : 230 MiB (85%)
Writing library                  : XviD 1.2.1 (UTC 2008-12-04)
Audio #1
ID                               : 1
Format                           : MPEG Audio
Format version                   : Version 1
Format profile                   : Layer 3
Codec ID                         : 55
Codec ID/Hint                    : MP3
Duration                         : 21mn 29s
Bit rate mode                    : Constant
Bit rate                         : 128 Kbps
Channel(s)                       : 2 channels
Sampling rate                    : 48.0 KHz
Stream size                      : 19.7 MiB (7%)
Alignment                        : Aligned on interleaves
Interleave, duration             : 42 ms (1.00 video frame)
Interleave, preload duration     : 504 ms
Writing library                  : LAME3.98r
Encoding settings                : -m s -V 4 -q 2 -lowpass 17 -b 128
Audio #2
ID                               : 2
Format                           : MPEG Audio
Format version                   : Version 1
Format profile                   : Layer 3
Codec ID                         : 55
Codec ID/Hint                    : MP3
Duration                         : 21mn 29s
Bit rate mode                    : Constant
Bit rate                         : 128 Kbps
Channel(s)                       : 2 channels
Sampling rate                    : 48.0 KHz
Stream size                      : 19.7 MiB (7%)
Alignment                        : Aligned on interleaves
Interleave, duration             : 42 ms (1.00 video frame)
Interleave, preload duration     : 504 ms
Writing library                  : LAME3.98r
Encoding settings                : -m s -V 4 -q 2 -lowpass 17 -b 128
-

Внимание! Раздача ведётся путём добавления новых серий!

Внимание! Раздача ведётся путём добавления новых серий; при каждом добавлении создётся новый торрент. Чтобы начать докачку новой серии, пользователям необходимо сделать следующее:
(1) остановить скачивание,
(2) удалить старый торрент у себя из клиента (старые серии удалять не надо),
(3) скачать новый торрент и запустить его у себя в клиенте вместо старого, при этом указать клиенту путь в старую папку куда и должно происходить скачивание новых серий.
Ваш клиент при этом должен произвести хеширование (проверку) старой папки (если не производит сам - помогите ему сделать это), и будет докачивать только те серии которых у вас ещё нет. Старые серии при этом не удаляются, а продолжают раздаваться!
Eсли вы уже удалили старые серии, то предотвратить повторную закачку старых серий можно, отжав галочку в соответсвующих местах при запуске нового торрента.
--
Вы не можете начинать темы
Вы не можете отвечать на сообщения
Вы не можете редактировать свои сообщения
Вы не можете удалять свои сообщения
Вы не можете голосовать в опросах
Вы не можете прикреплять файлы к сообщениям
Вы можете скачивать файлы
!ВНИМАНИЕ!

Сайт не предоставляет электронные версии произведений, а занимается лишь коллекционированием и каталогизацией ссылок, присылаемых и публикуемых на форуме нашими читателями. Если вы являетесь правообладателем какого-либо представленного материала и не желаете, чтобы ссылка на него находилась в нашем каталоге, свяжитесь с нами, и мы незамедлительно удалим ее. Файлы для обмена на трекере предоставлены пользователями сайта, и администрация не несет ответственности за их содержание. Просьба не заливать файлы, защищенные авторскими правами, а также файлы нелегального содержания!

Искали программы, игры, дополнения, музыка mp3, аниме, аудио книги, журналы? Добро пожаловать на свободный торрент трекер Torrents, у нас можно скачать бесплатно, без смс и регистрации и прочих ограничений лучшие, отборные сборки программ, игр. Скачать торрентом не составит труда даже не опытному пользователю. Раздачи ежедневно обновляются, только лучшие и качественные раздачи, подробные описания и скриншоты. Огромная коллекция программ для работы со звуком, графикой, дизайном, а так же множество плагинов и инструментов к ним с подробной инструкцией и рекомендациями. Прошивки для навигаторов, карты. Разнообразные игры, для Windows, Linux. В коллекцие есть и старые игры любых жанров, Rpg, Action, Shooter, strategy Множество дополнений, модификаций, сценариев для популярных игр в жанре экш, рпг, гонки, стратегии, логические игры. Множество аддонов и сценариев для Microsoft Flight Simulator Большая коллекция книг, учебников. Если нет возможности купить печатное издание - смело скачивайте цифровую версию книги или, быть может, журнала. Не любите читать - можно загрузить бесплатно аудикнигу. Для веб дизайнеров и программистов так же найдется множество специализированного софта, таких как: редакторы с подсветкой, среды программирования, компоненты, системы управления базами данных, разнообразные скрипты и шаблоны. Не так давно у нас появился материал для автолюбителей и владельцев мото - оригинальные и неоригинальные каталоги запчастей, книги и журналы по ремонту и обслуживанию, видеоуроки, статьи по чип тюнингу, прошивкам. Процедура получения контента элементарная, достаточно просто скачать торрент файл и добавить его в загрузку в вашем торрент клиенте. Если у вас нет специального торрент клиента, вы можете его скачать у нас.

SitemapOne.Piece.Movie.04.Das.Dead.End.Rennen.German.2003.ANiME.DL.AC3D.1080p.BluRay.x264-STARS | 124 LEGO Marvel Super Heroes Universe In Peril – Nintendo 3DS Torrent9 Téléchargement LEGO Marvel Super Heroes Universe In Peril Nintendo 3DS telecharger torrent Marvel Super Heroes se rassemblent pour une, brique brisant bon moment... | Criminal Intent - Verbrechen im Visier