Доктор Кто / Doctor Who / Сезон: 6 / Серии: 1-13 из 13 (Тоби Хэйнс, Джереми Уэбб, Ричард Кларк) [2011, Великобритания, фантастика, драма, комедия, приключения, WEB-DLRip] MVO (Карусель, полный перевод) + Original 

Цитировать
Доктор Кто / Doctor Who
Год выпуска: 2011
Страна: Великобритания
Жанр: фантастика, драма, комедия, приключения
Продолжительность серии: 45 мин.
Перевод: Профессиональный (многоголосый, закадровый) - Карусель (ПОЛНЫЙ ПЕРЕВОД, на вырезанные на Карусели сцены вставлен перевод 1001cinema/Baibak&Ko)
Субтитры: нет
Режиссёр: Тоби Хэйнс, Джереми Уэбб, Ричард Кларк
Сценарий: Стивен Моффат
В ролях: Мэтт Смит, Карен Гиллан, Артур Дарвилл, Алекс Кингстон
Описание: Доктор Кто (Doctor Who) — британский научно-фантастический телесериал компании Би-Би-Си о загадочном путешественнике во времени, известном как «Доктор», который вместе со своими спутниками исследует время и пространство, борясь со вселенским злом.
У него на вооружении - машина времени TARDIS - Time And Relative Dimension In Space. Снаружи это всего лишь британская полицейская будка 1950-х, а внутри гораздо более просторный пространственно-временной корабль.
Доп. информация: В новом сезоне...
Доктор, Эми и Рори возвращаются, чтобы столкнуться с монстрами, загадками и приключениями во всём времени и пространстве. Они окажутся в Америке 60х годов и будут противостоять вторжению в забытый мир. Затем они попадут на борт пиратского корабля и раскроют тайну Сирен. В пузырьковой вселенной на самом краю света, Доктор повстречает старого друга с новым лицом, а в монастыре на далёком острове в недалёком будущем производственная авария примет ужасную человеческую форму. В конце их поджидает битва у Бега Демонов и самый тяжёлый час для Доктора. Поможет ли правда о Ривер Сонг спасти душу Повелителя Времени?
Ссылка на предыдущие и альтернативные раздачи: Все раздачи сериала
Перевод канала Карусель: 5 сезон | 6 сезон
Сэмпл: http://yadi.sk/d/KLdL6zhR3SeF3
Качество: WEB-DLRip
Формат: AVI
Видео кодек: XviD
Аудио кодек: MP3
Видео: XviD (720x400 (16:9), 25.000 fps, ~1279 kbps avg, 0.178 bit/pixel) (исходник Doctor.Who.s06.WEB-DLRip.Rus-Eng.BaibaKo)
Аудио: MP3 (48 kHz, Joint-Stereo, 192 kbps) [Русский, Карусель] (звук от Alexey17)
Аудио 2: MP3 (48 kHz, Joint-Stereo, 192 kbps) [Английский]
Субтитры: отсутствуют
Теги: Названия серий, тип перевода
Релиз:

MediaInfo

General
Complete name : E:\Video\Series\Doctor_Who_s06.rus(Karusel).eng.WEB-DLRip.[p2p-portal.tk]\Doctor_Who_s06e01.rus(Karusel).eng.WEB-DLRip.[p2p-portal.tk].avi
Format : AVI
Format/Info : Audio Video Interleave
File size : 523 MiB
Duration : 43mn 36s
Overall bit rate : 1 677 Kbps
Movie name : Доктор Кто / Doctor Who s06e01 "The Impossible Astronaut" (1)
Encoded by : Shumaher
Writing application : VirtualDubMod 1.5.10.2 (build 2542/release)
Video
Format : MPEG-4 Visual
Format profile : Streaming Video@L1
Format settings, BVOP : Yes
Format settings, QPel : No
Format settings, GMC : No warppoints
Format settings, Matrix : Default
Muxing mode : Packed bitstream
Codec ID : XVID
Codec ID/Hint : XviD
Duration : 43mn 36s
Bit rate : 1 279 Kbps
Width : 720 pixels
Height : 400 pixels
Display aspect ratio : 16/9
Frame rate : 25.000 fps
Resolution : 24 bits
Colorimetry : 4:2:0
Scan type : Progressive
Bits/(Pixel*Frame) : 0.178
Stream size : 399 MiB (76%)
Writing library : XviD 50
Audio #1
Format : MPEG Audio
Format version : Version 1
Format profile : Layer 3
Codec ID : 55
Codec ID/Hint : MP3
Duration : 43mn 36s
Bit rate mode : Constant
Bit rate : 192 Kbps
Channel(s) : 2 channels
Sampling rate : 48.0 KHz
Resolution : 16 bits
Stream size : 59.9 MiB (11%)
Alignment : Aligned on interleaves
Interleave, duration : 40 ms (1.00 video frame)
Interleave, preload duration : 504 ms
Title : Russian: Профессиональный (многоголосый, закадровый) - Карусель
Audio #2
Format : MPEG Audio
Format version : Version 1
Format profile : Layer 3
Codec ID : 55
Codec ID/Hint : MP3
Duration : 43mn 36s
Bit rate mode : Constant
Bit rate : 192 Kbps
Channel(s) : 2 channels
Sampling rate : 48.0 KHz
Resolution : 16 bits
Stream size : 59.9 MiB (11%)
Alignment : Aligned on interleaves
Interleave, duration : 40 ms (1.00 video frame)
Interleave, preload duration : 504 ms
Title : English

Скриншоты

Вы не можете начинать темы
Вы не можете отвечать на сообщения
Вы не можете редактировать свои сообщения
Вы не можете удалять свои сообщения
Вы не можете голосовать в опросах
Вы не можете прикреплять файлы к сообщениям
Вы можете скачивать файлы
!ВНИМАНИЕ!

Сайт не предоставляет электронные версии произведений, а занимается лишь коллекционированием и каталогизацией ссылок, присылаемых и публикуемых на форуме нашими читателями. Если вы являетесь правообладателем какого-либо представленного материала и не желаете, чтобы ссылка на него находилась в нашем каталоге, свяжитесь с нами, и мы незамедлительно удалим ее. Файлы для обмена на трекере предоставлены пользователями сайта, и администрация не несет ответственности за их содержание. Просьба не заливать файлы, защищенные авторскими правами, а также файлы нелегального содержания!

Искали программы, игры, дополнения, музыка mp3, аниме, аудио книги, журналы? Добро пожаловать на свободный торрент трекер Torrents, у нас можно скачать бесплатно, без смс и регистрации и прочих ограничений лучшие, отборные сборки программ, игр. Скачать торрентом не составит труда даже не опытному пользователю. Раздачи ежедневно обновляются, только лучшие и качественные раздачи, подробные описания и скриншоты. Огромная коллекция программ для работы со звуком, графикой, дизайном, а так же множество плагинов и инструментов к ним с подробной инструкцией и рекомендациями. Прошивки для навигаторов, карты. Разнообразные игры, для Windows, Linux. В коллекцие есть и старые игры любых жанров, Rpg, Action, Shooter, strategy Множество дополнений, модификаций, сценариев для популярных игр в жанре экш, рпг, гонки, стратегии, логические игры. Множество аддонов и сценариев для Microsoft Flight Simulator Большая коллекция книг, учебников. Если нет возможности купить печатное издание - смело скачивайте цифровую версию книги или, быть может, журнала. Не любите читать - можно загрузить бесплатно аудикнигу. Для веб дизайнеров и программистов так же найдется множество специализированного софта, таких как: редакторы с подсветкой, среды программирования, компоненты, системы управления базами данных, разнообразные скрипты и шаблоны. Не так давно у нас появился материал для автолюбителей и владельцев мото - оригинальные и неоригинальные каталоги запчастей, книги и журналы по ремонту и обслуживанию, видеоуроки, статьи по чип тюнингу, прошивкам. Процедура получения контента элементарная, достаточно просто скачать торрент файл и добавить его в загрузку в вашем торрент клиенте. Если у вас нет специального торрент клиента, вы можете его скачать у нас.

SitemapThe Little Drummer Girl | Télécharger ! | wszystkie