Касл / Castle / Сезон: 6 / Серии: 1-23 (23) (Роб Боумен, Джон Терлески, Брайан Спайсер) [2013, США, Драма, комедия, криминал, детектив, WEB-DLRip] MVO (LostFilm) + Original 

Цитировать
Касл / Castle- Год выпуска: 2013
Страна: США
Жанр: Драма, комедия, криминал, детектив
Продолжительность: ~ 43мин/серия
Перевод: Профессиональный (многоголосый, закадровый) - LostFilm
Субтитры: Нет-Режиссёр: Роб Боумен, Джон Терлески, Брайан Спайсер-В ролях: Натан Филлион, Стана Катик, Сьюзэн Салливан, Молли С. Куинн, Джон Уэртас, Тамала Джонс, Шимус Девер, Рубен Сантьяго-Хадсон, Пенни Джонсон, Ари Гросс и др.-Описание: Знакомьтесь, Ричард Касл — успешный писатель детективного жанра, который в последней книге убил своего главного героя. Но кажется, что одному из почитателей его таланта книги понравились слегка чересчур — в городе появляется подражатель, совершающий преступления, с убийственной точностью копируя способы, которыми Касл убивал в своих произведениях. И вот наш изнывающий от скуки писатель был вызван в отдел убийств Нью-йоркской полиции, чтобы помочь найти убийцу.-Качество: WEB-DLRip
Формат: AVI
Видео кодек: XviD
Аудио кодек: MP3
Видео: 720x400 (16:9), 23.976 fps, ~1500 kbps, 0.217 bit/pixel
Аудио Rus: 48 kHz, 2 ch, 192 kbps
Аудио Eng: 48 kHz, 2 ch, 192 kbps-Релиз и озвучка: TV MEKC & LostFilm
Рип: Tyance
Постер: Vortex-Все раздачи сериала / IMDB / Сэмпл / Кинопоиск- -

MI

Общее
Формат                                   : AVI
Формат/Информация                        : Audio Video Interleave
Размер файла                             : 574 Мбайт
Продолжительность                        : 42 м.
Общий поток                              : 1898 Кбит/сек
Программа кодирования                    : VirtualDubMod 1.5.10.2 (build 2540/release)
Библиотека кодирования                   : VirtualDubMod build 2540/release
Видео
Идентификатор                            : 0
Формат                                   : MPEG-4 Visual
Профиль формата                          : Advanced Simple@L5
Параметр BVOP формата                    : 1
Параметр QPel формата                    : Нет
Параметр GMC формата                     : Без точки перехода
Параметр матрицы формата                 : Default (MPEG)
Идентификатор кодека                     : XVID
Идентификатор кодека/Подсказка           : XviD
Продолжительность                        : 42 м.
Битрейт                                  : 1500 Кбит/сек
Ширина                                   : 720 пикселей
Высота                                   : 400 пикселей
Соотношение сторон                       : 16:9
Частота кадров                           : 23,976 кадра/сек
Цветовое пространство                    : YUV
Субдискретизация насыщенности            : 4:2:0
Битовая глубина                          : 8 бит
Тип развёртки                            : Прогрессивная
Метод сжатия                             : С потерями
Бит/(Пиксели*Кадры)                      : 0.217
Размер потока                            : 454 Мбайт (79%)
Библиотека кодирования                   : XviD 1.2.1 (UTC 2008-12-04)
Аудио #1
Идентификатор                            : 1
Формат                                   : MPEG Audio
Версия формата                           : Version 1
Профиль формата                          : Layer 3
Режим                                    : Joint stereo
Расширение режима                        : MS Stereo
Идентификатор кодека                     : 55
Идентификатор кодека/Подсказка           : MP3
Продолжительность                        : 42 м.
Вид битрейта                             : Постоянный
Битрейт                                  : 192 Кбит/сек
Каналы                                   : 2 канала
Частота                                  : 48,0 КГц
Метод сжатия                             : С потерями
Размер потока                            : 58,1 Мбайт (10%)
Выравнивание                             : Соединение по промежуткам
Продолжительность промежутка             : 42  мс. (1,00 видеокадр)
Время предзагрузки промежутка            : 504  мс.
Библиотека кодирования                   : LAME3.99r
Настройки программы                      : -m j -V 4 -q 3 -lowpass 18.6 -b 192
Аудио #2
Идентификатор                            : 2
Формат                                   : MPEG Audio
Версия формата                           : Version 1
Профиль формата                          : Layer 3
Режим                                    : Joint stereo
Расширение режима                        : MS Stereo
Идентификатор кодека                     : 55
Идентификатор кодека/Подсказка           : MP3
Продолжительность                        : 42 м.
Вид битрейта                             : Постоянный
Битрейт                                  : 192 Кбит/сек
Каналы                                   : 2 канала
Частота                                  : 48,0 КГц
Метод сжатия                             : С потерями
Размер потока                            : 58,1 Мбайт (10%)
Выравнивание                             : Соединение по промежуткам
Продолжительность промежутка             : 42  мс. (1,00 видеокадр)
Время предзагрузки промежутка            : 504  мс.
Библиотека кодирования                   : LAME3.99r
Настройки программы                      : -m j -V 4 -q 3 -lowpass 18.6 -b 192

Список серий

01. Valkyrie / Валькирия
02. Dreamworld / Сказочная страна
03. Need to Know / Нужно знать
04. Number One Fan / Фанат №1
05. Time Will Tell / Время покажет
06. Get a Clue / Догадайся
07. Like Father, Like Daughter / Какой отец, такая и дочь
08. A Murder Is Forever / Убийство - это навсегда
09. Disciple / Последователь
10. The Good, the Bad and the Baby
11. Under Fire
12. Deep Cover
13. Limelight
14. Dressed to Kill
15. Smells Like Teen Spirit
16. Room 147
17. In the Belly of the Beast
18. The Way of the Ninja
19. The Greater Good
20. That '70's Show
21. Law & Boarder
22. Veritas
23. For Better or Worse
Вы не можете начинать темы
Вы не можете отвечать на сообщения
Вы не можете редактировать свои сообщения
Вы не можете удалять свои сообщения
Вы не можете голосовать в опросах
Вы не можете прикреплять файлы к сообщениям
Вы можете скачивать файлы
!ВНИМАНИЕ!

Сайт не предоставляет электронные версии произведений, а занимается лишь коллекционированием и каталогизацией ссылок, присылаемых и публикуемых на форуме нашими читателями. Если вы являетесь правообладателем какого-либо представленного материала и не желаете, чтобы ссылка на него находилась в нашем каталоге, свяжитесь с нами, и мы незамедлительно удалим ее. Файлы для обмена на трекере предоставлены пользователями сайта, и администрация не несет ответственности за их содержание. Просьба не заливать файлы, защищенные авторскими правами, а также файлы нелегального содержания!

Искали программы, игры, дополнения, музыка mp3, аниме, аудио книги, журналы? Добро пожаловать на свободный торрент трекер Torrents, у нас можно скачать бесплатно, без смс и регистрации и прочих ограничений лучшие, отборные сборки программ, игр. Скачать торрентом не составит труда даже не опытному пользователю. Раздачи ежедневно обновляются, только лучшие и качественные раздачи, подробные описания и скриншоты. Огромная коллекция программ для работы со звуком, графикой, дизайном, а так же множество плагинов и инструментов к ним с подробной инструкцией и рекомендациями. Прошивки для навигаторов, карты. Разнообразные игры, для Windows, Linux. В коллекцие есть и старые игры любых жанров, Rpg, Action, Shooter, strategy Множество дополнений, модификаций, сценариев для популярных игр в жанре экш, рпг, гонки, стратегии, логические игры. Множество аддонов и сценариев для Microsoft Flight Simulator Большая коллекция книг, учебников. Если нет возможности купить печатное издание - смело скачивайте цифровую версию книги или, быть может, журнала. Не любите читать - можно загрузить бесплатно аудикнигу. Для веб дизайнеров и программистов так же найдется множество специализированного софта, таких как: редакторы с подсветкой, среды программирования, компоненты, системы управления базами данных, разнообразные скрипты и шаблоны. Не так давно у нас появился материал для автолюбителей и владельцев мото - оригинальные и неоригинальные каталоги запчастей, книги и журналы по ремонту и обслуживанию, видеоуроки, статьи по чип тюнингу, прошивкам. Процедура получения контента элементарная, достаточно просто скачать торрент файл и добавить его в загрузку в вашем торрент клиенте. Если у вас нет специального торрент клиента, вы можете его скачать у нас.

SitemapBohemian Rhapsody (2018) BluRay 1080p YTS YIFY | Indonesian | Caroline Couret-Delegue