Комиссар Рекс / Kommissar Rex / Сезон: 1 / Серии: 1-14 из 14 (Ганс Вернер, Оливер Хиршбигель, Михаэль Рибль) [1994-1995, Австрия, Германия, боевик, криминал, детектив, DVD-Remux] MVO (студия НОТА по заказу ВГТРК) + Original 

Цитировать
Комиссар Рекс / Kommissar Rex
Сезон 1 / Staffel 1
-Год выпуска: 1994-1995
Страна: Австрия, Германия
Жанр: боевик, криминал, детектив
Продолжительность: 00:45:00
Перевод: Профессиональный (многоголосый закадровый), студия НОТА по заказу ВГТРК
Режиссёр: Ганс Вернер, Оливер Хиршбигель, Михаэль Рибль
В ролях: Тобиас Моретти, Гедеон Буркхард, Герхард Земан, Хайнц Вайксельбраун, Вольф Бахофнер, Ретт Батлер, Мартин Вайнек, Санто фон Хаус Цигельмайер, Фриц Мулиар, Александр Пшилль
Описание: Немецкая овчарка Рекс работает штатным сотрудником Венской криминальной полиции в отделе по расследованию убийств. Чуткий нос, бесстрашие и преданность друзьям-полицейским сделали его настоящей грозой преступного мира Австрии. Там, где в погоне требуется скорость, где надо незаметно подобраться к вооруженному преступннику, размахивающему пистолетом, или принять на себя удар, отведя его от напарника-человека, Рекс незаменим. Но, как и всякий полицейский, вне службы Рекс позволяет себе небольшие житейские слабости, но только на свой, собачий, лад. Погоняться за мячиком, оставить хозяина без обеда, вовремя схватить лакомый кусок, а потом, невинно повиливая хвостом, отводить взгляд.-Дополнительно:
За основу ремуска взяты диски DVD9, скачанные из юзнета. Первый эпизод с чешской лицензии, остальные с немецкой. Эпизоды со 2 по 5 с немного меньшим битрейтом, т.к. на первом диске немецкой лицензии было 4 этих эпизода, на остальных по 3.-| КИНОПОИСК | IMDB |
| SAMPLE | ВИКИ |
Комиссар Рекс / Сезон 2 / DVD-RemuxКомиссар Рекс / Сезон 4 / DVD-Remux-Ссылка на предыдущие и альтернативные раздачи
Качество: DVD-Remux
Формат: MKV
Видео кодек: MPEG2
Аудио кодек: AC3
Видео: MPEG2, 720x576 (4:3), 25 fps
1 эпизод ~ 7500 kbps
2-5 эпизод ~5300 kbps
6-14 эпизод ~7200 kbps
Аудио 1: Russian (Dolby AC3, 2 ch) 192 kbps, 48kHz | MVO (студия НОТА по заказу ВГТРК)
Аудио 2: German (Dolby AC3, 2 ch) 224 kbps, 48kHz
* 1 эпизод German (Dolby AC3, 2 ch) 192 kbps, 48kHz
Навигация по главам: есть

MediaInfo

Complete name : J:\Комиссар Рекс\Сезон 1\2.mkv
Format : Matroska
Format version : Version 2
File size : 1.88 GiB
Duration : 45mn 36s
Overall bit rate mode : Variable
Overall bit rate : 5 911 Kbps
Encoded date : UTC 2013-01-22 14:25:59
Writing application : mkvmerge v5.5.0 ('Healer') built on Apr 6 2012 21:43:24
Writing library : libebml v1.2.3 + libmatroska v1.3.0
Video
ID : 1
Format : MPEG Video
Format version : Version 2
Format profile : Main@Main
Format settings, BVOP : No
Format settings, Matrix : Default
Codec ID : V_MPEG2
Codec ID/Info : MPEG 1 or 2 Video
Duration : 45mn 36s
Bit rate mode : Variable
Bit rate : 5 377 Kbps
Maximum bit rate : 9 000 Kbps
Width : 720 pixels
Height : 576 pixels
Display aspect ratio : 4:3
Frame rate mode : Constant
Frame rate : 25.000 fps
Standard : PAL
Color space : YUV
Chroma subsampling : 4:2:0
Bit depth : 8 bits
Scan type : Interlaced
Scan order : Top Field First
Compression mode : Lossy
Bits/(Pixel*Frame) : 0.519
Stream size : 1.71 GiB (91%)
Default : Yes
Forced : No
Color primaries : BT.601 PAL
Transfer characteristics : BT.470 System B, BT.470 System G
Matrix coefficients : BT.601
Audio #1
ID : 2
Format : AC-3
Format/Info : Audio Coding 3
Mode extension : CM (complete main)
Format settings, Endianness : Big
Codec ID : A_AC3
Duration : 45mn 36s
Bit rate mode : Constant
Bit rate : 192 Kbps
Channel(s) : 2 channels
Channel positions : Front: L R
Sampling rate : 48.0 KHz
Bit depth : 16 bits
Compression mode : Lossy
Stream size : 62.6 MiB (3%)
Language : Russian
Default : Yes
Forced : No
Audio #2
ID : 3
Format : AC-3
Format/Info : Audio Coding 3
Mode extension : CM (complete main)
Format settings, Endianness : Big
Codec ID : A_AC3
Duration : 45mn 36s
Bit rate mode : Constant
Bit rate : 224 Kbps
Channel(s) : 2 channels
Channel positions : Front: L R
Sampling rate : 48.0 KHz
Bit depth : 16 bits
Compression mode : Lossy
Stream size : 73.1 MiB (4%)
Language : German
Default : No
Forced : No
Menu
00:00:00.000 : en:Chapter 1
00:10:06.840 : en:Chapter 2
00:27:53.360 : en:Chapter 3
00:36:52.080 : en:Chapter 4
00:44:53.600 : en:Chapter 5

Скриншоты



Господа, большая просьба как можно дольше сидировать.
Я не смогу стоять на раздаче вечно.
Вы не можете начинать темы
Вы не можете отвечать на сообщения
Вы не можете редактировать свои сообщения
Вы не можете удалять свои сообщения
Вы не можете голосовать в опросах
Вы не можете прикреплять файлы к сообщениям
Вы можете скачивать файлы
!ВНИМАНИЕ!

Сайт не предоставляет электронные версии произведений, а занимается лишь коллекционированием и каталогизацией ссылок, присылаемых и публикуемых на форуме нашими читателями. Если вы являетесь правообладателем какого-либо представленного материала и не желаете, чтобы ссылка на него находилась в нашем каталоге, свяжитесь с нами, и мы незамедлительно удалим ее. Файлы для обмена на трекере предоставлены пользователями сайта, и администрация не несет ответственности за их содержание. Просьба не заливать файлы, защищенные авторскими правами, а также файлы нелегального содержания!

Искали программы, игры, дополнения, музыка mp3, аниме, аудио книги, журналы? Добро пожаловать на свободный торрент трекер Torrents, у нас можно скачать бесплатно, без смс и регистрации и прочих ограничений лучшие, отборные сборки программ, игр. Скачать торрентом не составит труда даже не опытному пользователю. Раздачи ежедневно обновляются, только лучшие и качественные раздачи, подробные описания и скриншоты. Огромная коллекция программ для работы со звуком, графикой, дизайном, а так же множество плагинов и инструментов к ним с подробной инструкцией и рекомендациями. Прошивки для навигаторов, карты. Разнообразные игры, для Windows, Linux. В коллекцие есть и старые игры любых жанров, Rpg, Action, Shooter, strategy Множество дополнений, модификаций, сценариев для популярных игр в жанре экш, рпг, гонки, стратегии, логические игры. Множество аддонов и сценариев для Microsoft Flight Simulator Большая коллекция книг, учебников. Если нет возможности купить печатное издание - смело скачивайте цифровую версию книги или, быть может, журнала. Не любите читать - можно загрузить бесплатно аудикнигу. Для веб дизайнеров и программистов так же найдется множество специализированного софта, таких как: редакторы с подсветкой, среды программирования, компоненты, системы управления базами данных, разнообразные скрипты и шаблоны. Не так давно у нас появился материал для автолюбителей и владельцев мото - оригинальные и неоригинальные каталоги запчастей, книги и журналы по ремонту и обслуживанию, видеоуроки, статьи по чип тюнингу, прошивкам. Процедура получения контента элементарная, достаточно просто скачать торрент файл и добавить его в загрузку в вашем торрент клиенте. Если у вас нет специального торрент клиента, вы можете его скачать у нас.

SitemapEvolution Simulator 2 v1.06 APK Cracked | Transcendence | Write Source A Book for Writing Thinking and Learning