Косяки / Дурман / Weeds / Сезон: 4 / Серии: 1-13 из 13 (Крейг Зиск, Перри Лэнг, Эрнест Р. Дикерсон) [2008, США, комедия, драма, криминал, HDRip] MVO (Fox Life) 

Цитировать
--Косяки / Дурман / Weeds-- Год выпуска: 2008
Страна: США | Showtime
Жанр: комедия, драма, криминал
Продолжительность: ~ 28 минут
Перевод: Профессиональный (многоголосый, закадровый) - Fox Life
Субтитры: Нет
Режиссёры: Крейг Зиск, Перри Лэнг, Эрнест Р. Дикерсон и другие...-В ролях: Мэри-Луиз Паркер, Элизабет Перкинс, Хантер Пэрриш, Александр Гулд, Кевин Нилон, Джастин Кирк, Элли Грант, Энди Милдер, Романи Малко, Тони Патано и другие...-Описание: Речь в сериале идет не о борьбе с наркотиками и о том, как же вредна наркомания; здесь представлен взгляд совершенно с другой стороны - Нэнси живет в том самом американском сабарбе - предместье, где у каждого свой "скелет в шкафу". Она - вдова с двумя весьма оригинальными детьми. Старший, Сайлас, мальчик умный и интересный, с постоянными пробелемами на любовном фронте, младший, Шейн - это вообще отдельная песня, за мамой он ходит постоянно и просит дать ему антидепрессанты, причем в больших количествах. Но вернемся к маме - Нэнси не нашла никакого другого способа прокормить семью, как начать торговать марихуаной, которую ей подбрасывают местными дилеры - семейка афроамериканцев, где всем заправляет Хейлия, а помогает весьма неравнодушный к Нэнси парень Конрад. После появления собственного торговца марихуаной, у Нэнси начали отовариваться все ее соседи - адвокаты, финансисты и прочие личности. В общем, можете себе представить эту картину, здорово приправленную черным юмором, замечательными комедийными вставками и трагикомическими поворотам.-Качество: HDRip (BDRip 720p / CtrlHD)
Формат: AVI
Видео кодек: XviD
Аудио кодек: AC3
Видео: 720x400 (16:9), 23.976 fps, ~1300 kbps, ~0.190 bit/pixel
Аудио Rus: 48 kHz, 2 ch, ~192 kbps |Fox Life|
Аудио Eng: 48 kHz, 2 ch, ~192 kbps |Original|-
Озвучка: Fox Life
Рип: LegendKiev-Размер: 1 х DVD5-Все раздачи сериала / Сэмпл / ImDB / Кинопоиск-Список серий
  • Mother Thinks the Birds Are After Her / Мама думает, что птицы ее преследуют
  • Lady's a Charm / Леди-очарование
  • The Whole Blah Damn Thing / Вздор
  • The Three Coolers / Эти три холодильника
  • No Man Is Pudding / Человек - не пудинг
  • Excellent Treasures / Превосходные Сокровища
  • Yes I Can / Да, я могу
  • I Am the Table / Я - стол
  • Little Boats / Маленькие лодки
  • The Love Circle Overlap / Пересечение любовного круга
  • Head Cheese / Головка сыра
  • Till We Meet Again / Пока мы снова не встретимся
  • If You Work for a Living, Then Why Do You Kill Yourself Working? / Если ты работаешь ради того, чтобы жить, то почему ты убиваешь себя, работая?

    Скриншоты



    MediaInfo

    Общее
    Полное имя : E:\Weeds\Weeds.s04.HDRip.Rus.Eng\Weeds.s04e01.HDRip.Rus.Eng.avi
    Формат : AVI
    Формат/Информация : Audio Video Interleave
    Размер файла : 340 Мбайт
    Продолжительность : 27 м.
    Общий поток : 1701 Кбит/сек
    Программа кодирования : VirtualDubMod 1.5.10.2 (build 2540/release)
    Библиотека кодирования : VirtualDubMod build 2540/release
    Видео
    Идентификатор : 0
    Формат : MPEG-4 Visual
    Профиль формата : Advanced Simple@L5
    Параметр BVOP формата : 1
    Параметр QPel формата : Нет
    Параметр GMC формата : Без точки перехода
    Параметр матрицы формата : Выборочная
    Идентификатор кодека : XVID
    Идентификатор кодека/Подсказка : XviD
    Продолжительность : 27 м.
    Битрейт : 1303 Кбит/сек
    Ширина : 720 пикселей
    Высота : 400 пикселей
    Соотношение сторон : 16:9
    Частота кадров : 23,976 кадра/сек
    Цветовое пространство : YUV
    Субдискретизация насыщенности : 4:2:0
    Битовая глубина : 8 бит
    Тип развёртки : Прогрессивная
    Метод сжатия : С потерями
    Бит/(Пиксели*Кадры) : 0.189
    Размер потока : 261 Мбайт (77%)
    Библиотека кодирования : XviD 65
    Аудио #1
    Идентификатор : 1
    Формат : AC-3
    Формат/Информация : Audio Coding 3
    Расширение режима : CM (complete main)
    Параметр Endianness формата : Big
    Идентификатор кодека : 2000
    Продолжительность : 27 м.
    Вид битрейта : Постоянный
    Битрейт : 192 Кбит/сек
    Каналы : 2 канала
    Расположение каналов : Front: L R
    Частота : 48,0 КГц
    Битовая глубина : 16 бит
    Метод сжатия : С потерями
    Размер потока : 38,4 Мбайт (11%)
    Выравнивание : Разделение по промежуткам
    Продолжительность промежутка : 42 мс. (1,00 видеокадр)
    Время предзагрузки промежутка : 500 мс.
    Аудио #2
    Идентификатор : 2
    Формат : AC-3
    Формат/Информация : Audio Coding 3
    Расширение режима : CM (complete main)
    Параметр Endianness формата : Big
    Идентификатор кодека : 2000
    Продолжительность : 27 м.
    Вид битрейта : Постоянный
    Битрейт : 192 Кбит/сек
    Каналы : 2 канала
    Расположение каналов : Front: L R
    Частота : 48,0 КГц
    Битовая глубина : 16 бит
    Метод сжатия : С потерями
    Размер потока : 38,4 Мбайт (11%)
    Выравнивание : Разделение по промежуткам
    Продолжительность промежутка : 42 мс. (1,00 видеокадр)
    Время предзагрузки промежутка : 500 мс.
  • Вы не можете начинать темы
    Вы не можете отвечать на сообщения
    Вы не можете редактировать свои сообщения
    Вы не можете удалять свои сообщения
    Вы не можете голосовать в опросах
    Вы не можете прикреплять файлы к сообщениям
    Вы можете скачивать файлы
    !ВНИМАНИЕ!

    Сайт не предоставляет электронные версии произведений, а занимается лишь коллекционированием и каталогизацией ссылок, присылаемых и публикуемых на форуме нашими читателями. Если вы являетесь правообладателем какого-либо представленного материала и не желаете, чтобы ссылка на него находилась в нашем каталоге, свяжитесь с нами, и мы незамедлительно удалим ее. Файлы для обмена на трекере предоставлены пользователями сайта, и администрация не несет ответственности за их содержание. Просьба не заливать файлы, защищенные авторскими правами, а также файлы нелегального содержания!

    Искали программы, игры, дополнения, музыка mp3, аниме, аудио книги, журналы? Добро пожаловать на свободный торрент трекер Torrents, у нас можно скачать бесплатно, без смс и регистрации и прочих ограничений лучшие, отборные сборки программ, игр. Скачать торрентом не составит труда даже не опытному пользователю. Раздачи ежедневно обновляются, только лучшие и качественные раздачи, подробные описания и скриншоты. Огромная коллекция программ для работы со звуком, графикой, дизайном, а так же множество плагинов и инструментов к ним с подробной инструкцией и рекомендациями. Прошивки для навигаторов, карты. Разнообразные игры, для Windows, Linux. В коллекцие есть и старые игры любых жанров, Rpg, Action, Shooter, strategy Множество дополнений, модификаций, сценариев для популярных игр в жанре экш, рпг, гонки, стратегии, логические игры. Множество аддонов и сценариев для Microsoft Flight Simulator Большая коллекция книг, учебников. Если нет возможности купить печатное издание - смело скачивайте цифровую версию книги или, быть может, журнала. Не любите читать - можно загрузить бесплатно аудикнигу. Для веб дизайнеров и программистов так же найдется множество специализированного софта, таких как: редакторы с подсветкой, среды программирования, компоненты, системы управления базами данных, разнообразные скрипты и шаблоны. Не так давно у нас появился материал для автолюбителей и владельцев мото - оригинальные и неоригинальные каталоги запчастей, книги и журналы по ремонту и обслуживанию, видеоуроки, статьи по чип тюнингу, прошивкам. Процедура получения контента элементарная, достаточно просто скачать торрент файл и добавить его в загрузку в вашем торрент клиенте. Если у вас нет специального торрент клиента, вы можете его скачать у нас.

    SitemapDownload APK | Next Page | More Details