Морская полиция: Лос Анджелес / NCIS: Los Angeles / Сезон: 4 / Серии: 1-24 (24) (Тони Уормби, Терренс О’Хара, Джеймс Уитмор мл.) [2012, США, триллер, драма, криминал, детектив, HDTVRip] Original + Rus Subs (Notabenoid) 

Цитировать
Морская полиция: Лос Анджелес / NCIS: Los Angeles / Сезон: 4
Год выпуска: 2012
Страна: США
Жанр: триллер, драма, криминал, детектив
Продолжительность: 00:45:00
Перевод: субтитры
Русские субтитры: есть
Субтитры: Notabenoid (Vitalogy, trishalizard, Tyroesse, EliSS, Zymosis, Dreamgirl, ... )
Режиссёр: Тони Уормби, Терренс О’Хара, Джеймс Уитмор мл.
В ролях: Крис О`Доннелл, LL Кул Джей, Линда Хант, Peter Cambor, Daniela Ruah, Адам Ямал Крэйг, Barrett Foa, Роки Кэрролл, Клер Кэри, Винсент Де Пол
Описание: 4-й сезон NCIS: Los Angeles — драмы о сложной работе — наблюдении под прикрытием.
Отдел особых проектов — подразделение NCIS, которое занимается опасными преступниками, угрожающими безопасности всей страны. Используя фальшивые личности и последние технологии, команда специалистов работает под прикрытием, рискуя собственными жизнями ради достижения цели. Специальный агент Джи Каллен — хамелеон, который способен трансформироваться в кого угодно, чтобы проникнуть в преступный мир.
Его напарник — специальный агент Сэм Ханна, бывший морской котик, который участвовал в боях в Афганистане и в Ираке, эксперт по наблюдению, который использует последние достижения мониторинга для наблюдения за полевыми агентами и связи с ними. Помогает команде специальный агент Кенси Блай, необыкновенно одаренная дочь погибшего морпеха, которая обожает риск, сопутствующий работе под прикрытием. Психолог Нэйт Гетц способен понять мотивы любого человека, он составляет профили преступников и наблюдает за психологическим состоянием оперативников. Эта небольшая команда полагается друг на друга и готова сделать все, чтобы защитить национальные интересы.
Доп. информация
Все раздачи сериала
Сэмпл

Качество: HDTVRip
Формат: AVI
Видео кодек: XviD
Аудио кодек: MP3
Видео: XviD, 640x360px, 23.976 fps, 980 Kbps, 0.177bit/pixel
Аудио: MP3, 48000Hz, 2 channels, 128Kbps

MediaInfo

General
Complete name : E:\ДЛЯ РАЗДАЧИ\Сериалы\РУТРЕКЕР\NCIS.LA.S04\ NCIS.Los.Angeles.S04E01.HDTV.avi
Format : AVI
Format/Info : Audio Video Interleave
File size : 347 MiB
Duration : 43mn 15s
Overall bit rate : 1 121 Kbps
Video
ID : 0
Format : MPEG-4 Visual
Format profile : Advanced Simple@L5
Format settings, BVOP : 2
Format settings, QPel : No
Format settings, GMC : No warppoints
Format settings, Matrix : Default (H.263)
Codec ID : XVID
Codec ID/Hint : XviD
Duration : 43mn 15s
Bit rate : 980 Kbps
Width : 640 pixels
Height : 360 pixels
Display aspect ratio : 16:9
Frame rate : 23.976 fps
Color space : YUV
Chroma subsampling : 4:2:0
Bit depth : 8 bits
Scan type : Progressive
Compression mode : Lossy
Bits/(Pixel*Frame) : 0.177
Stream size : 303 MiB (87%)
Writing library : XviD 64
Audio
ID : 1
Format : MPEG Audio
Format version : Version 1
Format profile : Layer 3
Mode : Joint stereo
Mode extension : MS Stereo
Codec ID : 55
Codec ID/Hint : MP3
Duration : 43mn 15s
Bit rate mode : Variable
Bit rate : 128 Kbps
Channel(s) : 2 channels
Sampling rate : 48.0 KHz
Compression mode : Lossy
Stream size : 39.6 MiB (11%)
Alignment : Aligned on interleaves
Interleave, duration : 24 ms (0.58 video frame)
Interleave, preload duration : 178 ms
Title : NCIS.Los.Angeles.S04E01.HDTV.XviD-AFG_360p.audio
Writing library : LAME3.98.4

Скриншоты




Внимание! Раздача ведётся путём добавления новых серий

Внимание! Раздача ведётся путём добавления новых серий; при каждом добавлении создётся новый торрент. Чтобы начать докачку новой серии, пользователям необходимо сделать следующее:
1) остановить скачивание;
2) удалить старый торрент у себя из клиента (старые серии удалять не надо);
3) скачать новый торрент и запустить его у себя в клиенте вместо старого, при этом указать клиенту путь в старую папку куда и должно происходить скачивание новых серий.
Ваш клиент при этом должен произвести хеширование (проверку) старой папки (если не производит сам - помогите ему сделать это), и будет докачивать только те серии которых у вас ещё нет. Старые серии при этом не удаляются, а продолжают раздаваться!
Eсли вы уже удалили старые серии, то предотвратить повторную закачку старых серий можно, отжав галочку в соответсвующих местах при запуске нового торрента.
Вы не можете начинать темы
Вы не можете отвечать на сообщения
Вы не можете редактировать свои сообщения
Вы не можете удалять свои сообщения
Вы не можете голосовать в опросах
Вы не можете прикреплять файлы к сообщениям
Вы можете скачивать файлы
!ВНИМАНИЕ!

Сайт не предоставляет электронные версии произведений, а занимается лишь коллекционированием и каталогизацией ссылок, присылаемых и публикуемых на форуме нашими читателями. Если вы являетесь правообладателем какого-либо представленного материала и не желаете, чтобы ссылка на него находилась в нашем каталоге, свяжитесь с нами, и мы незамедлительно удалим ее. Файлы для обмена на трекере предоставлены пользователями сайта, и администрация не несет ответственности за их содержание. Просьба не заливать файлы, защищенные авторскими правами, а также файлы нелегального содержания!

Искали программы, игры, дополнения, музыка mp3, аниме, аудио книги, журналы? Добро пожаловать на свободный торрент трекер Torrents, у нас можно скачать бесплатно, без смс и регистрации и прочих ограничений лучшие, отборные сборки программ, игр. Скачать торрентом не составит труда даже не опытному пользователю. Раздачи ежедневно обновляются, только лучшие и качественные раздачи, подробные описания и скриншоты. Огромная коллекция программ для работы со звуком, графикой, дизайном, а так же множество плагинов и инструментов к ним с подробной инструкцией и рекомендациями. Прошивки для навигаторов, карты. Разнообразные игры, для Windows, Linux. В коллекцие есть и старые игры любых жанров, Rpg, Action, Shooter, strategy Множество дополнений, модификаций, сценариев для популярных игр в жанре экш, рпг, гонки, стратегии, логические игры. Множество аддонов и сценариев для Microsoft Flight Simulator Большая коллекция книг, учебников. Если нет возможности купить печатное издание - смело скачивайте цифровую версию книги или, быть может, журнала. Не любите читать - можно загрузить бесплатно аудикнигу. Для веб дизайнеров и программистов так же найдется множество специализированного софта, таких как: редакторы с подсветкой, среды программирования, компоненты, системы управления базами данных, разнообразные скрипты и шаблоны. Не так давно у нас появился материал для автолюбителей и владельцев мото - оригинальные и неоригинальные каталоги запчастей, книги и журналы по ремонту и обслуживанию, видеоуроки, статьи по чип тюнингу, прошивкам. Процедура получения контента элементарная, достаточно просто скачать торрент файл и добавить его в загрузку в вашем торрент клиенте. Если у вас нет специального торрент клиента, вы можете его скачать у нас.

SitemapViper Club | Dakota A. | Monique Gabriela Curnen