Клондайк / Доминион Крик / An Klondike / Dominion Creek / Сезон: 2 из 2/ Серии: 1-2 из 4 (Датха Кин) [2017, Ирландия, вестерн, приключения, драма, HDTVRip] Original + Rus Sub (izolenta) + Original (Eng, Ire) 

Цитировать
Клондайк-2 / Доминион Крик-2 / An Klondike-2 / Dominion Creek-2- Год выпуска: 2017
Страна: Ирландия
Жанр: Вестерн, приключения, драма
Продолжительность: 52 мин.
Перевод: Русские субтитры
Русские субтитры: Авторы: Елена Частухина - izolenta
Режиссёр: Датха Кин
В ролях: Оуэн Макдоннел - Том Коннолли,
Дара Девани - Шеймус Коннолли,
Шон Т. О Миллай - Пэдриг Коннолли,
Роберт О’Махони - Джейкоб Хопкинс,
Меган Риордан - Эстелла Хопкинс,
Нед Деннехи - капитан Пэт,
Шивон О’Келли - Кэт Мулрайан,
Стив Уолл - Сэм Стил (Монти- прозвище канадских полицейских),
Майкл Гленн Мерфи - Проныра Смит,
Хлоя Эварт- Эль Су,
Финнуала Флаэрти - Бриджит Маннион

Описание:
Братья Коннолли, выходцы из Ирландии, изо всех сил пытаются создать собственную империю во времена золотой Клондайкской лихорадки 1890-х годов. Коннолли объединились и зарекомендовали себя как сила, с которой нужно считаться на этой территории, но на фоне растущего беззакония в Доминион Крик братья сталкиваются с проблемой, которая угрожает уничтожить всё, что им дорого. Их старый мир добрых ирландских традиций, семьи и религии в Новом Свете постепенно разрушается, превращаясь в мир, где с приходом цивилизации все эти ценности теряются и сходят на нет.
Доп. информация:
Сериал примечателен тем, что это первый ирландский фильм, снятый в жанре вестерн. Сокращённая версия даже отправлялась на участие в премии Оскар как лучший фильм на иностранном языке.
Некоторые герои - Белинда Малруни, Сэм Стил, Бриджит Маннион и пр. - реально существовавшие люди, жившие на Клондайке во времена Золотой лихорадки и прочно вошедшие в историю.
Внимание!
На Западе сериал шёл под названием Dominion Creek / Доминион Крик возможно, во избежание путаницы с американским сериалом Klondike 2014-года.
Временами поверх английских субтитров наложены русские, отображающиеся жёлтым цветом. Больше ничего придумать не смогла.
Ссылка на предыдущие и альтернативные раздачи:
http://rutracker.org/forum/tracker.php?nm=Klondike
Сэмпл: - http://multi-up.com/1166379
Качество:
Формат: mp4
Видео: AVC at 2 121 Kbps, 1280 x 720 (1.778) at 25.000 fps
Аудио: AAC at 128 Kbps, 2 channels, 44.1 KHz

MI

Полное имя : D:\Раздачи\An Klondike-2\an.klondike.s02e01.720p.WEBRip.izo.mp4
Формат : MPEG-4
Профиль формата : Base Media
Идентификатор кодека : isom
Размер файла : 848 MiB
Продолжительность : 52mn 34s
Режим общего битрейта : Variable
Общий поток : 2 255 Kbps
Программа кодирования : Lavf57.34.103
Video
Идентификатор : 1
Формат : AVC
Формат/Информация : Advanced Video Codec
Профиль формата : Main@L3.1
Параметр CABAC формата : Yes
Параметр ReFrames формата : 4 frames
Идентификатор кодека : avc1
Идентификатор кодека/Информация : Advanced Video Coding
Продолжительность : 52mn 34s
Битрейт : 2 121 Kbps
Ширина : 1 280 pixels
Высота : 720 pixels
Соотношение сторон : 16:9
Режим частоты кадров : Constant
Частота кадров : 25.000 fps
Цветовое пространство : YUV
Субдискретизация насыщенности : 4:2:0
Битовая глубина : 8 bits
Тип развёртки : Progressive
Бит/(Пиксели*Кадры) : 0.092
Размер потока : 798 MiB (94%)
Библиотека кодирования : Zencoder Video Encoding System
Основные цвета : BT.709
Характеристики трансфера : BT.709
Коэффициенты матрицы : BT.709
Audio
Идентификатор : 2
Формат : AAC
Формат/Информация : Advanced Audio Codec
Профиль формата : LC
Идентификатор кодека : 40
Продолжительность : 52mn 34s
Вид битрейта : Variable
Битрейт : 128 Kbps
Максимальный битрейт : 149 Kbps
Каналы : 2 channels
Расположение каналов : Front: L R
Частота : 44.1 KHz
Метод сжатия : Lossy
Размер потока : 48.0 MiB (6%)

Скриншоты

Внимание, раздача ведется путем добавления новых серий

Раздача ведётся путём добавления новых серий; при каждом добавлении создаётся новый торрент. Чтобы начать докачку новой серии, пользователям необходимо сделать следующее:
(1) остановить скачивание,
(2) удалить старый торрент у себя из клиента (старые серии удалять не надо),
(3) скачать новый торрент и запустить его у себя в клиенте вместо старого, при этом указать клиенту путь в старую папку куда и должно происходить скачивание новых серий.
Ваш клиент при этом должен произвести хеширование (проверку) старой папки (если не производит сам - помогите ему сделать это), и будет докачивать только те серии которых у вас ещё нет. Старые серии при этом не удаляются, а продолжают раздаваться!
Eсли вы уже удалили старые серии, то предотвратить повторную закачку старых серий можно, отжав галочку в соответствующих местах при запуске нового торрента. По возможности, желательно не удалять старые серии как можно дольше чтобы релизёр не столько продолжал раздавать старые серии, а смог сконцентрироваться на новых.
Британские детективные сериалы ЗДЕСЬ
Вы не можете начинать темы
Вы не можете отвечать на сообщения
Вы не можете редактировать свои сообщения
Вы не можете удалять свои сообщения
Вы не можете голосовать в опросах
Вы не можете прикреплять файлы к сообщениям
Вы можете скачивать файлы
!ВНИМАНИЕ!

Сайт не предоставляет электронные версии произведений, а занимается лишь коллекционированием и каталогизацией ссылок, присылаемых и публикуемых на форуме нашими читателями. Если вы являетесь правообладателем какого-либо представленного материала и не желаете, чтобы ссылка на него находилась в нашем каталоге, свяжитесь с нами, и мы незамедлительно удалим ее. Файлы для обмена на трекере предоставлены пользователями сайта, и администрация не несет ответственности за их содержание. Просьба не заливать файлы, защищенные авторскими правами, а также файлы нелегального содержания!

Искали программы, игры, дополнения, музыка mp3, аниме, аудио книги, журналы? Добро пожаловать на свободный торрент трекер Torrents, у нас можно скачать бесплатно, без смс и регистрации и прочих ограничений лучшие, отборные сборки программ, игр. Скачать торрентом не составит труда даже не опытному пользователю. Раздачи ежедневно обновляются, только лучшие и качественные раздачи, подробные описания и скриншоты. Огромная коллекция программ для работы со звуком, графикой, дизайном, а так же множество плагинов и инструментов к ним с подробной инструкцией и рекомендациями. Прошивки для навигаторов, карты. Разнообразные игры, для Windows, Linux. В коллекцие есть и старые игры любых жанров, Rpg, Action, Shooter, strategy Множество дополнений, модификаций, сценариев для популярных игр в жанре экш, рпг, гонки, стратегии, логические игры. Множество аддонов и сценариев для Microsoft Flight Simulator Большая коллекция книг, учебников. Если нет возможности купить печатное издание - смело скачивайте цифровую версию книги или, быть может, журнала. Не любите читать - можно загрузить бесплатно аудикнигу. Для веб дизайнеров и программистов так же найдется множество специализированного софта, таких как: редакторы с подсветкой, среды программирования, компоненты, системы управления базами данных, разнообразные скрипты и шаблоны. Не так давно у нас появился материал для автолюбителей и владельцев мото - оригинальные и неоригинальные каталоги запчастей, книги и журналы по ремонту и обслуживанию, видеоуроки, статьи по чип тюнингу, прошивкам. Процедура получения контента элементарная, достаточно просто скачать торрент файл и добавить его в загрузку в вашем торрент клиенте. Если у вас нет специального торрент клиента, вы можете его скачать у нас.

SitemapTélécharger | DOWNLOAD NOW “Go Goa Gone 2013 Full HD Movie Free Download 720p” | Ver perfil