Топ Гир / Top Gear / Сезон: 22 / Серии: 1-7 (8) [2015, Великобритания, Авто-шоу, HDTVRip 1080p] Original Eng + Sub (3xRus, Eng) 

AnthonyFREXY 05-Окт-2017 23:56
Цитировать
Топ Гир
Top Gear

Сезон 22
Страна: Великобритания
Режиссер: Энди Уилман
Жанр: Авто-шоу
Дата выпуска: 2015
Продолжительность: ~01:02:00
Перевод: Отсутствует
Субтитры: английские-Описание: Aвто-шоу «Top Gear» — это программа абсолютно новой формации для телезрителей прогрессивного толка. В ней нет ни слова о недорогих семейных автомобилях, нет занудных советов автолюбителям, да и банального cлова «автолюбитель» в ней тоже нет.
Это программа для настоящих фанатов роскошных, безумно дорогих и самых быстрых автомобилей, для настоящих ценителей запаха бензина и пылающих тормозных дисков, для тех, кому не безразличен экстремальный драйв.
Эксперты программы, профессионалы высочайшего класса, способны вынести справедливый вердикт любому сверхсовременному спорткару.-Ходят слухи, что всеми нами любимого Кларксона могут отстранить от Top Gear...
Подпиши петицию - верни Кларксона
Не забывайте также ставить хэштег #BringBackClarkson в соц.сетях. Поможем, как можем.-

Серия 1

  • Ведущие Топ Гир отправляются в Санкт-Петербург для невероятной гонки. Что быстрее? Велосипед, автомобиль, судно на воздушной подушке или общественный транспорт?
  • Новый Lamborghini Huracan в обзоре Ричарда Хаммонда.
  • Звезда в бюджетном авто - Эд Ширан, британский певец.

    MediaInfo

    General
    Unique ID : 195670618338985400135151489556270917353 (0x9334CA51BA8FA24391A2A4714D71A6E9)
    Complete name : E:\РАЗДАЧА\Top Gear S22 HDTV 1080p ENG\Top.Gear.UK.S22E01.1080p.HDTV.x264-FaiLED.mkv
    Format : Matroska
    Format version : Version 4 / Version 2
    File size : 4.78 GiB
    Duration : 1h 2mn
    Overall bit rate : 11.0 Mbps
    Encoded date : UTC 2015-02-02 12:12:07
    Writing application : mkvmerge v7.5.0 ('Glass Culture') 64bit built on Jan 4 2015 16:48:44
    Writing library : libebml v1.3.1 + libmatroska v1.4.2
    DURATION : 01:01:37.360000000
    NUMBER_OF_FRAMES : 961
    NUMBER_OF_BYTES : 41681
    _STATISTICS_WRITING_APP : mkvmerge v7.5.0 ('Glass Culture') 64bit built on Jan 4 2015 16:48:44
    _STATISTICS_WRITING_DATE_UT : 2015-02-02 12:12:07
    _STATISTICS_TAGS : BPS DURATION NUMBER_OF_FRAMES NUMBER_OF_BYTES
    Video
    ID : 1
    Format : AVC
    Format/Info : Advanced Video Codec
    Format profile : High@L4.1
    Format settings, CABAC : Yes
    Format settings, ReFrames : 4 frames
    Codec ID : V_MPEG4/ISO/AVC
    Duration : 1h 2mn
    Bit rate : 10.4 Mbps
    Width : 1 920 pixels
    Height : 1 080 pixels
    Display aspect ratio : 16:9
    Frame rate mode : Constant
    Frame rate : 25.000 fps
    Color space : YUV
    Chroma subsampling : 4:2:0
    Bit depth : 8 bits
    Scan type : Progressive
    Bits/(Pixel*Frame) : 0.200
    Stream size : 4.51 GiB (95%)
    Writing library : x264 core 144 r2525 40bb568
    Encoding settings : cabac=1 / ref=4 / deblock=1:0:0 / analyse=0x3:0x113 / me=umh / subme=8 / psy=1 / psy_rd=1.00:0.00 / mixed_ref=1 / me_range=16 / chroma_me=1 / trellis=1 / 8x8dct=1 / cqm=0 / deadzone=21,11 / fast_pskip=1 / chroma_qp_offset=-2 / threads=12 / lookahead_threads=2 / sliced_threads=0 / nr=0 / decimate=1 / interlaced=0 / bluray_compat=0 / constrained_intra=0 / bframes=3 / b_pyramid=2 / b_adapt=2 / b_bias=0 / direct=3 / weightb=1 / open_gop=0 / weightp=2 / keyint=250 / keyint_min=25 / scenecut=40 / intra_refresh=0 / rc_lookahead=50 / rc=crf / mbtree=1 / crf=20.0 / qcomp=0.60 / qpmin=0 / qpmax=69 / qpstep=4 / ip_ratio=1.40 / aq=1:1.00
    Language : English
    Default : Yes
    Forced : No
    Color primaries : BT.709
    Transfer characteristics : BT.709
    Matrix coefficients : BT.709
    Color range : Limited
    DURATION : 01:02:16.560000000
    NUMBER_OF_FRAMES : 93414
    NUMBER_OF_BYTES : 4947260461
    _STATISTICS_WRITING_APP : mkvmerge v7.5.0 ('Glass Culture') 64bit built on Jan 4 2015 16:48:44
    _STATISTICS_WRITING_DATE_UT : 2015-02-02 12:12:07
    _STATISTICS_TAGS : BPS DURATION NUMBER_OF_FRAMES NUMBER_OF_BYTES
    Audio
    ID : 2
    Format : AC-3
    Format/Info : Audio Coding 3
    Mode extension : CM (complete main)
    Format settings, Endianness : Big
    Codec ID : A_AC3
    Duration : 1h 2mn
    Bit rate mode : Constant
    Bit rate : 384 Kbps
    Channel(s) : 2 channels
    Channel positions : Front: L R
    Sampling rate : 48.0 KHz
    Bit depth : 16 bits
    Compression mode : Lossy
    Delay relative to video : 22ms
    Stream size : 171 MiB (3%)
    Language : English
    Default : Yes
    Forced : No
    Text
    ID : 3
    Format : UTF-8
    Codec ID : S_TEXT/UTF8
    Codec ID/Info : UTF-8 Plain Text
    Language : English
    Default : Yes
    Forced : No

Серия 2

  • Великое путешествие по северу Австралии на BMW M6 Gran Coupe, Bentley Continental GT V8 и Nissan GT-R.
  • Звезда в бюджетном авто - Кифер Сазерленд, звезда сериала "24".

    MediaInfo

    General
    Unique ID : 184906918378673716566734222795884237213 (0x8B1BC6F038A404089F9033E53644919D)
    Complete name : E:\РАЗДАЧА\Top Gear S22 HDTVRip 1080p ENG\Top.Gear.UK.S22E02.1080p.HDTV.x264-FaiLED.mkv
    Format : Matroska
    Format version : Version 4 / Version 2
    File size : 5.26 GiB
    Duration : 1h 2mn
    Overall bit rate : 12.1 Mbps
    Encoded date : UTC 2015-02-15 16:04:51
    Writing application : mkvmerge v7.6.0 ('Garden of Dreams') 64bit built on Feb 8 2015 13:04:34
    Writing library : libebml v1.3.1 + libmatroska v1.4.2
    DURATION : 01:01:49.880000000
    NUMBER_OF_FRAMES : 1100
    NUMBER_OF_BYTES : 45118
    _STATISTICS_WRITING_APP : mkvmerge v7.6.0 ('Garden of Dreams') 64bit built on Feb 8 2015 13:04:34
    _STATISTICS_WRITING_DATE_UT : 2015-02-15 16:04:51
    _STATISTICS_TAGS : BPS DURATION NUMBER_OF_FRAMES NUMBER_OF_BYTES
    Video
    ID : 1
    Format : AVC
    Format/Info : Advanced Video Codec
    Format profile : High@L4.1
    Format settings, CABAC : Yes
    Format settings, ReFrames : 4 frames
    Codec ID : V_MPEG4/ISO/AVC
    Duration : 1h 2mn
    Bit rate : 11.6 Mbps
    Width : 1 920 pixels
    Height : 1 072 pixels
    Display aspect ratio : 16:9
    Frame rate mode : Constant
    Frame rate : 25.000 fps
    Color space : YUV
    Chroma subsampling : 4:2:0
    Bit depth : 8 bits
    Scan type : Progressive
    Bits/(Pixel*Frame) : 0.226
    Stream size : 5.07 GiB (96%)
    Writing library : x264 core 144 r2525 40bb568
    Encoding settings : cabac=1 / ref=4 / deblock=1:0:0 / analyse=0x3:0x113 / me=umh / subme=8 / psy=1 / psy_rd=1.00:0.00 / mixed_ref=1 / me_range=16 / chroma_me=1 / trellis=1 / 8x8dct=1 / cqm=0 / deadzone=21,11 / fast_pskip=1 / chroma_qp_offset=-2 / threads=6 / lookahead_threads=1 / sliced_threads=0 / nr=0 / decimate=1 / interlaced=0 / bluray_compat=0 / constrained_intra=0 / bframes=3 / b_pyramid=2 / b_adapt=2 / b_bias=0 / direct=3 / weightb=1 / open_gop=0 / weightp=2 / keyint=250 / keyint_min=25 / scenecut=40 / intra_refresh=0 / rc_lookahead=50 / rc=crf / mbtree=1 / crf=20.0 / qcomp=0.60 / qpmin=0 / qpmax=69 / qpstep=4 / ip_ratio=1.40 / aq=1:1.00
    Language : English
    Default : Yes
    Forced : No
    DURATION : 01:02:29.120000000
    NUMBER_OF_FRAMES : 93728
    NUMBER_OF_BYTES : 5557099357
    _STATISTICS_WRITING_APP : mkvmerge v7.6.0 ('Garden of Dreams') 64bit built on Feb 8 2015 13:04:34
    _STATISTICS_WRITING_DATE_UT : 2015-02-15 16:04:51
    _STATISTICS_TAGS : BPS DURATION NUMBER_OF_FRAMES NUMBER_OF_BYTES
    Audio
    ID : 2
    Format : AC-3
    Format/Info : Audio Coding 3
    Mode extension : CM (complete main)
    Format settings, Endianness : Big
    Codec ID : A_AC3
    Duration : 1h 2mn
    Bit rate mode : Constant
    Bit rate : 192 Kbps
    Channel(s) : 2 channels
    Channel positions : Front: L R
    Sampling rate : 48.0 KHz
    Bit depth : 16 bits
    Compression mode : Lossy
    Stream size : 85.8 MiB (2%)
    Language : English
    Default : Yes
    Forced : No
    Text
    ID : 3
    Format : UTF-8
    Codec ID : S_TEXT/UTF8
    Codec ID/Info : UTF-8 Plain Text
    Language : English
    Default : Yes
    Forced : No

Серия 3

  • Джереми, Ричард и Джеймс проводят исследования с целью улучшения машин скорой помощи.
  • Звезда в бюджетном авто - Даниэль Риккярдо, гонщик Формулы-1.

    MediaInfo

    General
    Unique ID : 217724410321927520885995145364729518645 (0xA3CC3236A4EEBF86B4CD3F4915485A35)
    Complete name : E:\РАЗДАЧА\Top Gear S22 HDTVRip 1080p ENG\Top.Gear.UK.S22E03.1080p.HDTV.x264-FaiLED.mkv
    Format : Matroska
    Format version : Version 4 / Version 2
    File size : 4.76 GiB
    Duration : 1h 2mn
    Overall bit rate : 10.9 Mbps
    Encoded date : UTC 2015-02-15 15:29:41
    Writing application : mkvmerge v7.6.0 ('Garden of Dreams') 64bit built on Feb 8 2015 13:04:34
    Writing library : libebml v1.3.1 + libmatroska v1.4.2
    DURATION : 01:01:48.680000000
    NUMBER_OF_FRAMES : 1186
    NUMBER_OF_BYTES : 49268
    _STATISTICS_WRITING_APP : mkvmerge v7.6.0 ('Garden of Dreams') 64bit built on Feb 8 2015 13:04:34
    _STATISTICS_WRITING_DATE_UT : 2015-02-15 15:29:41
    _STATISTICS_TAGS : BPS DURATION NUMBER_OF_FRAMES NUMBER_OF_BYTES
    Video
    ID : 1
    Format : AVC
    Format/Info : Advanced Video Codec
    Format profile : High@L4.1
    Format settings, CABAC : Yes
    Format settings, ReFrames : 4 frames
    Codec ID : V_MPEG4/ISO/AVC
    Duration : 1h 2mn
    Bit rate : 10.5 Mbps
    Width : 1 920 pixels
    Height : 1 080 pixels
    Display aspect ratio : 16:9
    Frame rate mode : Constant
    Frame rate : 25.000 fps
    Color space : YUV
    Chroma subsampling : 4:2:0
    Bit depth : 8 bits
    Scan type : Progressive
    Bits/(Pixel*Frame) : 0.202
    Stream size : 4.58 GiB (96%)
    Writing library : x264 core 144 r2525 40bb568
    Encoding settings : cabac=1 / ref=4 / deblock=1:0:0 / analyse=0x3:0x113 / me=umh / subme=8 / psy=1 / psy_rd=1.00:0.00 / mixed_ref=1 / me_range=16 / chroma_me=1 / trellis=1 / 8x8dct=1 / cqm=0 / deadzone=21,11 / fast_pskip=1 / chroma_qp_offset=-2 / threads=6 / lookahead_threads=1 / sliced_threads=0 / nr=0 / decimate=1 / interlaced=0 / bluray_compat=0 / constrained_intra=0 / bframes=3 / b_pyramid=2 / b_adapt=2 / b_bias=0 / direct=3 / weightb=1 / open_gop=0 / weightp=2 / keyint=250 / keyint_min=25 / scenecut=40 / intra_refresh=0 / rc_lookahead=50 / rc=crf / mbtree=1 / crf=20.0 / qcomp=0.60 / qpmin=0 / qpmax=69 / qpstep=4 / ip_ratio=1.40 / aq=1:1.00
    Language : English
    Default : Yes
    Forced : No
    DURATION : 01:02:28.880000000
    NUMBER_OF_FRAMES : 93722
    NUMBER_OF_BYTES : 5016873930
    _STATISTICS_WRITING_APP : mkvmerge v7.6.0 ('Garden of Dreams') 64bit built on Feb 8 2015 13:04:34
    _STATISTICS_WRITING_DATE_UT : 2015-02-15 15:29:41
    _STATISTICS_TAGS : BPS DURATION NUMBER_OF_FRAMES NUMBER_OF_BYTES
    Audio
    ID : 2
    Format : AC-3
    Format/Info : Audio Coding 3
    Mode extension : CM (complete main)
    Format settings, Endianness : Big
    Codec ID : A_AC3
    Duration : 1h 2mn
    Bit rate mode : Constant
    Bit rate : 192 Kbps
    Channel(s) : 2 channels
    Channel positions : Front: L R
    Sampling rate : 48.0 KHz
    Bit depth : 16 bits
    Compression mode : Lossy
    Stream size : 85.8 MiB (2%)
    Language : English
    Default : Yes
    Forced : No
    Text
    ID : 3
    Format : UTF-8
    Codec ID : S_TEXT/UTF8
    Codec ID/Info : UTF-8 Plain Text
    Language : English
    Default : Yes
    Forced : No

Серия 4

  • Новые BMW M3 и BMW i8 в обзоре Джереми Кларксона.
  • Ричард Хаммонд с ностальгией тестирует Land Rover Defender.
  • Джеймс Мэй проверяет на треке новый 500-сильный Mercedes-AMG GT.
  • Звезды в бюджетном авто - актриса Марго Робби, обнажившаяся снявшаяся в "Волк с Уолл-стрит", и голливудская суперзвезда, Уилл Смит.

    MediaInfo

    General
    Unique ID : 223756587223180434523269773662448956989 (0xA855F37F22FD5B8AA9C204EDE892B63D)
    Complete name : E:\РАЗДАЧА\Top Gear S22 HDTVRip 1080p ENG\Top.Gear.UK.S22E04.1080p.HDTV.x264-FaiLED.mkv
    Format : Matroska
    Format version : Version 4 / Version 2
    File size : 4.35 GiB
    Duration : 1h 2mn
    Overall bit rate : 9 982 Kbps
    Encoded date : UTC 2015-02-17 20:06:17
    Writing application : mkvmerge v7.6.0 ('Garden of Dreams') 64bit built on Feb 8 2015 13:04:34
    Writing library : libebml v1.3.1 + libmatroska v1.4.2
    _STATISTICS_WRITING_APP : mkvmerge v7.6.0 ('Garden of Dreams') 64bit built on Feb 8 2015 13:04:34
    _STATISTICS_WRITING_DATE_UT : 2015-02-17 20:06:17
    _STATISTICS_TAGS : BPS DURATION NUMBER_OF_FRAMES NUMBER_OF_BYTES
    DURATION : 01:01:40.080000000
    NUMBER_OF_FRAMES : 1045
    NUMBER_OF_BYTES : 44300
    Video
    ID : 1
    Format : AVC
    Format/Info : Advanced Video Codec
    Format profile : High@L4.1
    Format settings, CABAC : Yes
    Format settings, ReFrames : 4 frames
    Codec ID : V_MPEG4/ISO/AVC
    Duration : 1h 2mn
    Bit rate : 9 400 Kbps
    Width : 1 920 pixels
    Height : 1 080 pixels
    Display aspect ratio : 16:9
    Frame rate mode : Constant
    Frame rate : 25.000 fps
    Color space : YUV
    Chroma subsampling : 4:2:0
    Bit depth : 8 bits
    Scan type : Progressive
    Bits/(Pixel*Frame) : 0.181
    Stream size : 4.09 GiB (94%)
    Writing library : x264 core 144 r2525 40bb568
    Encoding settings : cabac=1 / ref=4 / deblock=1:0:0 / analyse=0x3:0x113 / me=umh / subme=8 / psy=1 / psy_rd=1.00:0.00 / mixed_ref=1 / me_range=16 / chroma_me=1 / trellis=1 / 8x8dct=1 / cqm=0 / deadzone=21,11 / fast_pskip=1 / chroma_qp_offset=-2 / threads=12 / lookahead_threads=2 / sliced_threads=0 / nr=0 / decimate=1 / interlaced=0 / bluray_compat=0 / constrained_intra=0 / bframes=3 / b_pyramid=2 / b_adapt=2 / b_bias=0 / direct=3 / weightb=1 / open_gop=0 / weightp=2 / keyint=250 / keyint_min=25 / scenecut=40 / intra_refresh=0 / rc_lookahead=50 / rc=crf / mbtree=1 / crf=20.0 / qcomp=0.60 / qpmin=0 / qpmax=69 / qpstep=4 / ip_ratio=1.40 / aq=1:1.00
    Language : English
    Default : Yes
    Forced : No
    Color primaries : BT.709
    Transfer characteristics : BT.709
    Matrix coefficients : BT.709
    Color range : Limited
    _STATISTICS_WRITING_APP : mkvmerge v7.6.0 ('Garden of Dreams') 64bit built on Feb 8 2015 13:04:34
    _STATISTICS_WRITING_DATE_UT : 2015-02-17 20:06:17
    _STATISTICS_TAGS : BPS DURATION NUMBER_OF_FRAMES NUMBER_OF_BYTES
    DURATION : 01:02:21.520000000
    NUMBER_OF_FRAMES : 93538
    NUMBER_OF_BYTES : 4488010288
    Audio
    ID : 2
    Format : AC-3
    Format/Info : Audio Coding 3
    Mode extension : CM (complete main)
    Format settings, Endianness : Big
    Codec ID : A_AC3
    Duration : 1h 2mn
    Bit rate mode : Constant
    Bit rate : 384 Kbps
    Channel(s) : 2 channels
    Channel positions : Front: L R
    Sampling rate : 48.0 KHz
    Bit depth : 16 bits
    Compression mode : Lossy
    Delay relative to video : 22ms
    Stream size : 171 MiB (4%)
    Language : English
    Default : Yes
    Forced : No
    Text
    ID : 3
    Format : UTF-8
    Codec ID : S_TEXT/UTF8
    Codec ID/Info : UTF-8 Plain Text
    Language : English
    Default : Yes
    Forced : No

Серия 5

  • Компания Peugeot в ностальгическом обзоре Джереми и Джеймса.
  • Ричард сравнивает на треке Porsche Cayman GTS и Chevrolet Corvette.
  • Джеймс на дорогах Италии тестирует сенсационный 950-сильный гибридный гиперкар - LaFerrari.
  • Звезда в бюджетном авто - английский певец, Олли Мёрс.

    MediaInfo

    General
    Unique ID : 213077561432557863820951033327600270413 (0xA04D3EDFE7509950AAFA25BA83DBFC4D)
    Complete name : E:\РАЗДАЧА\Top Gear S22 HDTVRip 1080p ENG\Top.Gear.UK.S22E05.1080p.HDTV.x264-FaiLED.mkv
    Format : Matroska
    Format version : Version 4 / Version 2
    File size : 4.56 GiB
    Duration : 1h 2mn
    Overall bit rate : 10.5 Mbps
    Encoded date : UTC 2015-02-24 12:51:42
    Writing application : mkvmerge v7.6.0 ('Garden of Dreams') 64bit built on Feb 8 2015 13:04:34
    Writing library : libebml v1.3.1 + libmatroska v1.4.2
    DURATION : 01:01:31.060000000
    NUMBER_OF_FRAMES : 1140
    NUMBER_OF_BYTES : 44986
    _STATISTICS_WRITING_APP : mkvmerge v7.6.0 ('Garden of Dreams') 64bit built on Feb 8 2015 13:04:34
    _STATISTICS_WRITING_DATE_UT : 2015-02-24 12:51:42
    _STATISTICS_TAGS : BPS DURATION NUMBER_OF_FRAMES NUMBER_OF_BYTES
    Video
    ID : 1
    Format : AVC
    Format/Info : Advanced Video Codec
    Format profile : High@L4.1
    Format settings, CABAC : Yes
    Format settings, ReFrames : 4 frames
    Codec ID : V_MPEG4/ISO/AVC
    Duration : 1h 2mn
    Bit rate : 9 906 Kbps
    Width : 1 920 pixels
    Height : 1 080 pixels
    Display aspect ratio : 16:9
    Frame rate mode : Constant
    Frame rate : 25.000 fps
    Color space : YUV
    Chroma subsampling : 4:2:0
    Bit depth : 8 bits
    Scan type : Progressive
    Bits/(Pixel*Frame) : 0.191
    Stream size : 4.30 GiB (94%)
    Writing library : x264 core 144 r2525 40bb568
    Encoding settings : cabac=1 / ref=4 / deblock=1:0:0 / analyse=0x3:0x113 / me=umh / subme=8 / psy=1 / psy_rd=1.00:0.00 / mixed_ref=1 / me_range=16 / chroma_me=1 / trellis=1 / 8x8dct=1 / cqm=0 / deadzone=21,11 / fast_pskip=1 / chroma_qp_offset=-2 / threads=12 / lookahead_threads=2 / sliced_threads=0 / nr=0 / decimate=1 / interlaced=0 / bluray_compat=0 / constrained_intra=0 / bframes=3 / b_pyramid=2 / b_adapt=2 / b_bias=0 / direct=3 / weightb=1 / open_gop=0 / weightp=2 / keyint=250 / keyint_min=25 / scenecut=40 / intra_refresh=0 / rc_lookahead=50 / rc=crf / mbtree=1 / crf=20.0 / qcomp=0.60 / qpmin=0 / qpmax=69 / qpstep=4 / ip_ratio=1.40 / aq=1:1.00
    Language : English
    Default : Yes
    Forced : No
    Color primaries : BT.709
    Transfer characteristics : BT.709
    Matrix coefficients : BT.709
    Color range : Limited
    DURATION : 01:02:11.364000000
    NUMBER_OF_FRAMES : 93283
    NUMBER_OF_BYTES : 4716631640
    _STATISTICS_WRITING_APP : mkvmerge v7.6.0 ('Garden of Dreams') 64bit built on Feb 8 2015 13:04:34
    _STATISTICS_WRITING_DATE_UT : 2015-02-24 12:51:42
    _STATISTICS_TAGS : BPS DURATION NUMBER_OF_FRAMES NUMBER_OF_BYTES
    Audio
    ID : 2
    Format : AC-3
    Format/Info : Audio Coding 3
    Mode extension : CM (complete main)
    Format settings, Endianness : Big
    Codec ID : A_AC3
    Duration : 1h 2mn
    Bit rate mode : Constant
    Bit rate : 384 Kbps
    Channel(s) : 2 channels
    Channel positions : Front: L R
    Sampling rate : 48.0 KHz
    Bit depth : 16 bits
    Compression mode : Lossy
    Delay relative to video : 14ms
    Stream size : 171 MiB (4%)
    Language : English
    Default : Yes
    Forced : No
    Text
    ID : 3
    Format : UTF-8
    Codec ID : S_TEXT/UTF8
    Codec ID/Info : UTF-8 Plain Text
    Language : English
    Default : Yes
    Forced : No
Серия 6
  • Спасательная операция Джереми и Джеймса по вызволению Хаммонда из вечных льдов Канады.
  • Lexus RC F и Lexus LFA на треке в обзоре Кларксона.
  • Звезда в бюджетном авто - Джиллиан Андерсон. (The truth is out there I want to believe)

    MediaInfo

    General
    Unique ID : 192245712628366904816025176990668512095 (0x90A12D6E38D1DD45B8EA22EFF30F5B5F)
    Complete name : E:\РАЗДАЧА\Top Gear S22 HDTVRip 1080p ENG\Top.Gear.UK.S22E06.1080p.HDTV.x264-FaiLED.mkv
    Format : Matroska
    Format version : Version 4 / Version 2
    File size : 4.26 GiB
    Duration : 1h 1mn
    Overall bit rate : 9 834 Kbps
    Encoded date : UTC 2015-03-02 21:12:09
    Writing application : mkvmerge v7.6.0 ('Garden of Dreams') 64bit built on Feb 8 2015 13:04:34
    Writing library : libebml v1.3.1 + libmatroska v1.4.2
    DURATION : 01:01:25.240000000
    NUMBER_OF_FRAMES : 1038
    NUMBER_OF_BYTES : 42922
    _STATISTICS_WRITING_APP : mkvmerge v7.6.0 ('Garden of Dreams') 64bit built on Feb 8 2015 13:04:34
    _STATISTICS_WRITING_DATE_UT : 2015-03-02 21:12:09
    _STATISTICS_TAGS : BPS DURATION NUMBER_OF_FRAMES NUMBER_OF_BYTES
    Video
    ID : 1
    Format : AVC
    Format/Info : Advanced Video Codec
    Format profile : High@L4.1
    Format settings, CABAC : Yes
    Format settings, ReFrames : 4 frames
    Codec ID : V_MPEG4/ISO/AVC
    Duration : 1h 1mn
    Bit rate : 9 254 Kbps
    Width : 1 920 pixels
    Height : 1 080 pixels
    Display aspect ratio : 16:9
    Frame rate mode : Constant
    Frame rate : 25.000 fps
    Color space : YUV
    Chroma subsampling : 4:2:0
    Bit depth : 8 bits
    Scan type : Progressive
    Bits/(Pixel*Frame) : 0.179
    Stream size : 4.01 GiB (94%)
    Writing library : x264 core 144 r2525 40bb568
    Encoding settings : cabac=1 / ref=4 / deblock=1:0:0 / analyse=0x3:0x113 / me=umh / subme=8 / psy=1 / psy_rd=1.00:0.00 / mixed_ref=1 / me_range=16 / chroma_me=1 / trellis=1 / 8x8dct=1 / cqm=0 / deadzone=21,11 / fast_pskip=1 / chroma_qp_offset=-2 / threads=12 / lookahead_threads=2 / sliced_threads=0 / nr=0 / decimate=1 / interlaced=0 / bluray_compat=0 / constrained_intra=0 / bframes=3 / b_pyramid=2 / b_adapt=2 / b_bias=0 / direct=3 / weightb=1 / open_gop=0 / weightp=2 / keyint=250 / keyint_min=25 / scenecut=40 / intra_refresh=0 / rc_lookahead=50 / rc=crf / mbtree=1 / crf=20.0 / qcomp=0.60 / qpmin=0 / qpmax=69 / qpstep=4 / ip_ratio=1.40 / aq=1:1.00
    Language : English
    Default : Yes
    Forced : No
    Color primaries : BT.709
    Transfer characteristics : BT.709
    Matrix coefficients : BT.709
    Color range : Limited
    DURATION : 01:01:59.440000000
    NUMBER_OF_FRAMES : 92986
    NUMBER_OF_BYTES : 4392406350
    _STATISTICS_WRITING_APP : mkvmerge v7.6.0 ('Garden of Dreams') 64bit built on Feb 8 2015 13:04:34
    _STATISTICS_WRITING_DATE_UT : 2015-03-02 21:12:09
    _STATISTICS_TAGS : BPS DURATION NUMBER_OF_FRAMES NUMBER_OF_BYTES
    Audio
    ID : 2
    Format : AC-3
    Format/Info : Audio Coding 3
    Mode extension : CM (complete main)
    Format settings, Endianness : Big
    Codec ID : A_AC3
    Duration : 1h 1mn
    Bit rate mode : Constant
    Bit rate : 384 Kbps
    Channel(s) : 2 channels
    Channel positions : Front: L R
    Sampling rate : 48.0 KHz
    Bit depth : 16 bits
    Compression mode : Lossy
    Delay relative to video : 14ms
    Stream size : 170 MiB (4%)
    Language : English
    Default : Yes
    Forced : No
    Text
    ID : 3
    Format : UTF-8
    Codec ID : S_TEXT/UTF8
    Codec ID/Info : UTF-8 Plain Text
    Language : English
    Default : Yes
    Forced : No

Серия 7

  • Джеймс участвует в ралли на 600-сильном хэтчбеке.
  • Джереми тестирует на треке последний Jaguar F-type R и модернизированный Jaguar E-type, названный Eagle Low Drag GT.
  • Ричард в Испании испытывает новехонькую версию легендарной Mazda MX-5.
  • Звезда в бюджетном авто - Николас Холт, английский актер.

    MediaInfo

    Format                      : Matroska
    Format version : Version 4 / Version 2
    File size : 4.52 GiB
    Duration : 1h 1mn
    Overall bit rate : 10.4 Mbps
    Encoded date : UTC 2015-03-10 11:53:19
    Writing application : mkvmerge v7.6.0 ('Garden of Dreams') 64bit built on Feb 8 2015 13:04:34
    Writing library : libebml v1.3.1 + libmatroska v1.4.2
    DURATION : 01:01:10.080000000
    NUMBER_OF_FRAMES : 1167
    NUMBER_OF_BYTES : 47736
    _STATISTICS_WRITING_APP : mkvmerge v7.6.0 ('Garden of Dreams') 64bit built on Feb 8 2015 13:04:34
    _STATISTICS_WRITING_DATE_UT : 2015-03-10 11:53:19
    _STATISTICS_TAGS : BPS DURATION NUMBER_OF_FRAMES NUMBER_OF_BYTES
    Video
    ID : 1
    Format : AVC
    Format/Info : Advanced Video Codec
    Format profile : High@L4.1
    Format settings, CABAC : Yes
    Format settings, ReFrames : 4 frames
    Codec ID : V_MPEG4/ISO/AVC
    Duration : 1h 1mn
    Bit rate : 9 858 Kbps
    Width : 1 920 pixels
    Height : 1 080 pixels
    Display aspect ratio : 16:9
    Frame rate mode : Constant
    Frame rate : 25.000 fps
    Color space : YUV
    Chroma subsampling : 4:2:0
    Bit depth : 8 bits
    Scan type : Progressive
    Bits/(Pixel*Frame) : 0.190
    Stream size : 4.26 GiB (94%)
    Writing library : x264 core 144 r2525 40bb568
    Encoding settings : cabac=1 / ref=4 / deblock=1:0:0 / analyse=0x3:0x113 / me=umh / subme=8 / psy=1 / psy_rd=1.00:0.00 / mixed_ref=1 / me_range=16 / chroma_me=1 / trellis=1 / 8x8dct=1 / cqm=0 / deadzone=21,11 / fast_pskip=1 / chroma_qp_offset=-2 / threads=6 / lookahead_threads=1 / sliced_threads=0 / nr=0 / decimate=1 / interlaced=0 / bluray_compat=0 / constrained_intra=0 / bframes=3 / b_pyramid=2 / b_adapt=2 / b_bias=0 / direct=3 / weightb=1 / open_gop=0 / weightp=2 / keyint=250 / keyint_min=25 / scenecut=40 / intra_refresh=0 / rc_lookahead=50 / rc=crf / mbtree=1 / crf=20.0 / qcomp=0.60 / qpmin=0 / qpmax=69 / qpstep=4 / ip_ratio=1.40 / aq=1:1.00
    Language : English
    Default : Yes
    Forced : No
    DURATION : 01:01:51.880000000
    NUMBER_OF_FRAMES : 92797
    NUMBER_OF_BYTES : 4669303601
    _STATISTICS_WRITING_APP : mkvmerge v7.6.0 ('Garden of Dreams') 64bit built on Feb 8 2015 13:04:34
    _STATISTICS_WRITING_DATE_UT : 2015-03-10 11:53:19
    _STATISTICS_TAGS : BPS DURATION NUMBER_OF_FRAMES NUMBER_OF_BYTES
    Audio
    ID : 2
    Format : AC-3
    Format/Info : Audio Coding 3
    Mode extension : CM (complete main)
    Format settings, Endianness : Big
    Codec ID : A_AC3
    Duration : 1h 1mn
    Bit rate mode : Constant
    Bit rate : 384 Kbps
    Channel(s) : 2 channels
    Channel positions : Front: L R
    Sampling rate : 48.0 KHz
    Bit depth : 16 bits
    Compression mode : Lossy
    Delay relative to video : 6ms
    Stream size : 170 MiB (4%)
    Language : English
    Default : Yes
    Forced : No
    Text
    ID : 3
    Format : UTF-8
    Codec ID : S_TEXT/UTF8
    Codec ID/Info : UTF-8 Plain Text
    Language : English
    Default : Yes
    Forced : No
Русские субтитры: 1 | 2 | 3 | 4 | 5 | 6 | 7-Качество видео: HDTVRip 1080p
Формат видео: MKV
Видео: MPEG-4 AVC | 1920x1080 | 16:9 | 25 fps | ~10.131 mbps | ~0.196 bit/pixel
Аудио: AC-3 | 48.0 KHz | 2/0 (L,R) ch | 16 bits | 384 kbps
Субтитры: SRT | UTF-8-

Лог обновлений

  • 14-Мар-15 18:20 - Добавлены русские сабы к 7 серии от Склада Переводов.


  • 10-Мар-15 15:10 - Финальная замена 7 серии.

  • 09-Мар-15 19:40 - Добавлена 7 серия.

  • 02-Мар-15 23:06 - Добавлены сабы к 6 серии.

  • 02-Мар-15 00:34 - Финальная замена 6 серии на HDTVRip 1080p.

  • 02-Мар-15 02:40 - Добавлена 6 серия в HDTV 1080i.

  • 28-Фев-15 13:09 - Добавлены сабы к 2 и 3 сериям от Склада переводов (aka Nepravdin), за что большое спасибо S.c.a.r.a.b.e.y.

  • 27-Фев-15 19:22 - Добавлены сабы к 4 серии от Неправдина. Спасибо S.c.a.r.a.b.e.y.

  • 25-Фев-15 19:03 - В шапку добавлены русские сабы к 5 серии от Nepravdin'a, за что большое спасибо hulahup

  • 24-Фев-15 16:01 - Финальная замена 5 серии.

  • 23-Фев-15 03:14 - Замена 5 серии.

  • 23-Фев-15 01:35 - Добавлена 5 серия в HDTV 1080i.

  • 20-Фев-15 18:27 - В шапку добавлены сабы к 4 серии с Нотабеноида. Спасибо S.c.a.r.a.b.e.y.

  • 17-Фев-15 23:30 - Обновлена 4 серия на лучший по качеству HDTVRip. В шапку добавлены русские сабы к 4 эпизоду от многоуважаемого fry1231.

  • 17-Фев-15 19:24 - В шапку добавлены полные русские субтитры к 3 серии с Нотабеноида, за что спасибо S.c.a.r.a.b.e.y.
    Субтитры от fry1231 были также дополнены переводом с Нотабеноида.

  • 16-Фев-15 02:59 - Обновлена 4 серия на HDTVRip 1080p. (В прежней отсутствовал полутораминутный кусок на 00:38:21 и было немного похуже качество)

  • 16-Фев-15 01:37 - Добавлена 4 серия в HDTV 1080i. 2 и 3 серии заменены на HDTVRip'ы 1080p, лучшие по качеству. В шапку добавлены русские сабы для 3 серии, за что огромное спасибо fry1231 (субтитры неполные - отсутствует перевод со звездой в бюджетном авто)

  • 09-Фев-15 01:19 - Добавлена 3 серия в HDTV 1080i

  • 08-Фев-15 19:42 - В шапку добавлены русские субтитры для 2 серии. Спасибо hulahup

  • 02-Фев-15 16:24 - Все серии HDTV 1080i заменены на HDTVRip'ы 1080p

  • 02-Фев-15 02:00 - Добавлена 2 серия

  • 26-Янв-15 03:49 - Замена первого эпизода на необрезанный
Вы не можете начинать темы
Вы не можете отвечать на сообщения
Вы не можете редактировать свои сообщения
Вы не можете удалять свои сообщения
Вы не можете голосовать в опросах
Вы не можете прикреплять файлы к сообщениям
Вы можете скачивать файлы
!ВНИМАНИЕ!

Сайт не предоставляет электронные версии произведений, а занимается лишь коллекционированием и каталогизацией ссылок, присылаемых и публикуемых на форуме нашими читателями. Если вы являетесь правообладателем какого-либо представленного материала и не желаете, чтобы ссылка на него находилась в нашем каталоге, свяжитесь с нами, и мы незамедлительно удалим ее. Файлы для обмена на трекере предоставлены пользователями сайта, и администрация не несет ответственности за их содержание. Просьба не заливать файлы, защищенные авторскими правами, а также файлы нелегального содержания!

Искали программы, игры, дополнения, музыка mp3, аниме, аудио книги, журналы? Добро пожаловать на свободный торрент трекер Torrents, у нас можно скачать бесплатно, без смс и регистрации и прочих ограничений лучшие, отборные сборки программ, игр. Скачать торрентом не составит труда даже не опытному пользователю. Раздачи ежедневно обновляются, только лучшие и качественные раздачи, подробные описания и скриншоты. Огромная коллекция программ для работы со звуком, графикой, дизайном, а так же множество плагинов и инструментов к ним с подробной инструкцией и рекомендациями. Прошивки для навигаторов, карты. Разнообразные игры, для Windows, Linux. В коллекцие есть и старые игры любых жанров, Rpg, Action, Shooter, strategy Множество дополнений, модификаций, сценариев для популярных игр в жанре экш, рпг, гонки, стратегии, логические игры. Множество аддонов и сценариев для Microsoft Flight Simulator Большая коллекция книг, учебников. Если нет возможности купить печатное издание - смело скачивайте цифровую версию книги или, быть может, журнала. Не любите читать - можно загрузить бесплатно аудикнигу. Для веб дизайнеров и программистов так же найдется множество специализированного софта, таких как: редакторы с подсветкой, среды программирования, компоненты, системы управления базами данных, разнообразные скрипты и шаблоны. Не так давно у нас появился материал для автолюбителей и владельцев мото - оригинальные и неоригинальные каталоги запчастей, книги и журналы по ремонту и обслуживанию, видеоуроки, статьи по чип тюнингу, прошивкам. Процедура получения контента элементарная, достаточно просто скачать торрент файл и добавить его в загрузку в вашем торрент клиенте. Если у вас нет специального торрент клиента, вы можете его скачать у нас.

SitemapWersal. Prawo krwi (2015) Versailles | vsco cam mod | IMDb: 7.7 7,569 SD If Beale Street Could Talk