Осторожно, Модерн! / Серии: 1-56 из 56 (Анна Пармас) [1996-1998, Юмористический телесериал, DVDRip] 

Цитировать
Осторожно, Модерн!
Год выпуска: 1996-1998
Жанр: Комедийный сериал
Производство: "Шестой канал" Санкт-Петербург
Продолжительность: 25-26 мин
Субтитры: нет
Режиссёр: Анна Пармас
В ролях: Дмитрий Нагиев и Сергей Рост
Описание: Было время, когда Дмитрий Нагиев и Сергей Рост ещё не стали суперпопулярными трансформерами… Было время, когда ОНИ были простыми гениями перевоплощений и обыкновенными всемирно известными комиками… Было время, когда ИХ герои ещё не остепенились и не обзавелись семьями… Было время, когда ОНИ появлялись то здесь, то там - мылись в банях, пили на свадьбах, делили наследства, катались на поездах, искали клады по стройкам и снимали кино… Всё это ОНИ делали с полной отдачей и присущим ИМ талантом смешить… Это было то, с чего всё начиналось… Это был "Осторожно, Модерн!"…
Доп. информация: Всего было выпущено более 100 серий, из которых 56 были изданы на DVD. Часть остальных серий можно найти в альтернативной раздаче.
Исходник: 8хDVD9 от ув. MaxFrost

Качество: DVDRip
Формат: AVI //СОВМЕСТИМО С БЫТОВЫМИ ПЛЕЕРАМИ//
Видео кодек: XviD 73
Аудио кодек: MP3
Видео: 640x480 (4:3), ~1550 kbps, 25 fps, 0.2 bit/pixel
Аудио: 48.0 kHz, 2 ch, 128 kbps

Mediainfo

General
Complete name : F:\Осторожно модерн!\01 - Ангел и Бес.avi
Format : AVI
Format/Info : Audio Video Interleave
File size : 303 MiB
Duration : 25mn 6s
Overall bit rate : 1 688 Kbps
Writing application : VirtualDubMod 1.5.10.3 | www.virtualdub-fr.org || (build 2550/release)
Writing library : VirtualDubMod build 2550/release
Video
ID : 0
Format : MPEG-4 Visual
Format profile : Advanced Simple@L5
Format settings, BVOP : 1
Format settings, QPel : No
Format settings, GMC : No warppoints
Format settings, Matrix : Default (MPEG)
Codec ID : XVID
Codec ID/Hint : XviD
Duration : 25mn 6s
Bit rate : 1 550 Kbps
Width : 640 pixels
Height : 480 pixels
Display aspect ratio : 4:3
Frame rate : 25.000 fps
Color space : YUV
Chroma subsampling : 4:2:0
Bit depth : 8 bits
Scan type : Progressive
Compression mode : Lossy
Bits/(Pixel*Frame) : 0.202
Stream size : 278 MiB (92%)
Writing library : XviD 73
Audio
ID : 1
Format : MPEG Audio
Format version : Version 1
Format profile : Layer 3
Mode : Joint stereo
Codec ID : 55
Codec ID/Hint : MP3
Duration : 25mn 6s
Bit rate mode : Constant
Bit rate : 128 Kbps
Channel(s) : 2 channels
Sampling rate : 48.0 KHz
Compression mode : Lossy
Stream size : 23.0 MiB (8%)
Alignment : Aligned on interleaves
Interleave, duration : 40 ms (1.00 video frame)
Interleave, preload duration : 504 ms
Writing library : LAME3.99r
Encoding settings : -m j -V 4 -q 1 -lowpass 17 -b 128
Вы не можете начинать темы
Вы не можете отвечать на сообщения
Вы не можете редактировать свои сообщения
Вы не можете удалять свои сообщения
Вы не можете голосовать в опросах
Вы не можете прикреплять файлы к сообщениям
Вы можете скачивать файлы
!ВНИМАНИЕ!

Сайт не предоставляет электронные версии произведений, а занимается лишь коллекционированием и каталогизацией ссылок, присылаемых и публикуемых на форуме нашими читателями. Если вы являетесь правообладателем какого-либо представленного материала и не желаете, чтобы ссылка на него находилась в нашем каталоге, свяжитесь с нами, и мы незамедлительно удалим ее. Файлы для обмена на трекере предоставлены пользователями сайта, и администрация не несет ответственности за их содержание. Просьба не заливать файлы, защищенные авторскими правами, а также файлы нелегального содержания!

Искали программы, игры, дополнения, музыка mp3, аниме, аудио книги, журналы? Добро пожаловать на свободный торрент трекер Torrents, у нас можно скачать бесплатно, без смс и регистрации и прочих ограничений лучшие, отборные сборки программ, игр. Скачать торрентом не составит труда даже не опытному пользователю. Раздачи ежедневно обновляются, только лучшие и качественные раздачи, подробные описания и скриншоты. Огромная коллекция программ для работы со звуком, графикой, дизайном, а так же множество плагинов и инструментов к ним с подробной инструкцией и рекомендациями. Прошивки для навигаторов, карты. Разнообразные игры, для Windows, Linux. В коллекцие есть и старые игры любых жанров, Rpg, Action, Shooter, strategy Множество дополнений, модификаций, сценариев для популярных игр в жанре экш, рпг, гонки, стратегии, логические игры. Множество аддонов и сценариев для Microsoft Flight Simulator Большая коллекция книг, учебников. Если нет возможности купить печатное издание - смело скачивайте цифровую версию книги или, быть может, журнала. Не любите читать - можно загрузить бесплатно аудикнигу. Для веб дизайнеров и программистов так же найдется множество специализированного софта, таких как: редакторы с подсветкой, среды программирования, компоненты, системы управления базами данных, разнообразные скрипты и шаблоны. Не так давно у нас появился материал для автолюбителей и владельцев мото - оригинальные и неоригинальные каталоги запчастей, книги и журналы по ремонту и обслуживанию, видеоуроки, статьи по чип тюнингу, прошивкам. Процедура получения контента элементарная, достаточно просто скачать торрент файл и добавить его в загрузку в вашем торрент клиенте. Если у вас нет специального торрент клиента, вы можете его скачать у нас.

SitemapToquinho | Adobe Photoshop Express Premium patched apk latest | Supergirl (2015)