Тайны следствия 11 / Серии: 1-12 из 12 (Рената Грицкова) [2012, Детектив, HDTVRip - AVC] 

Цитировать
Тайны следствия 11- Год выпуска: 2012
Производство: "Форвард-Фильм"
Жанр: Детектив
Продолжительность: ~ 00:43:00
Субтитры: нет-Режиссёр: Рената Грицкова-В ролях: Анна Ковальчук, Сергей Барышев, Вячеслав Захаров, Александр Новиков, Мирослав Малич, Игорь Григорьев, Александр Шпилько, Светлана Щедрина, Олег Алмазов, Юлия Яковлева, Андрей Шарков, Дмитрий Поднозов, Злата Ильченко, Сергей Куприянов, Нелли Попова, Марианна Лучинина, Ольга Павловец-Описание: В этот раз следователь Швецова возьмётся за не менее сложные и запутанные дела. Тело генерального директора известной пивной компании Выготского будет найдено на пороге ресторана. Его жена и любовница станут бороться за освободившееся директорское кресло. Маше придётся выяснить, кто из них причастен к убийству. К счастью, Швецовой всегда готовы помочь коллеги - бывалые судмедэксперты и криминалисты Володя Винокуров и Фёдор Курочкин. Также специалистам питерского следственного комитета предстоит раскрыть странное преступление - убийство бывшего шкипера Глебова, отравленного неизвестным ноотропным препаратом.
В личной жизни у Маши есть несгибаемый тыл в лице любящего супруга Дмитрия Луганского и дочери Златы. Благодаря их поддержке, а также своим выдающимся способностям Маша никогда не пасует перед самыми трудными преступлениями. В раскрытии некоторых дел активное участие принимает новый работник комитета – следователь Людмила Колонкова. Она работает по протекции главы следственного комитета Филонова , с которым у Швецовой по-прежнему непростые отношения из-за разницы в профессиональных взглядах.-Доп. Информация: Спасибо mydimka за предоставленный исходник!-Любая реклама ОТСУТСТВУЕТ!!!-Все раздачи сериала
Сэмпл-Качество: HDTVRip - AVC [Рип с HDTV 1080i]
Формат: MKV
Видео кодек: H.264
Аудио кодек: AC3
Видео: x264, 1024 х 576 (16:9), 25,000 кадр/сек, ~ 1559 Кбит/сек, ~ 0.106 bit/pixel
Аудио: AC3, 48.0 KHz, 2 канала(ов), 192 Kbps

MI

Complete name : Тайны следствия 11.01 серия.2012.HDTVRip-AVC.Metla111.mkv
Format : Matroska
Format version : Version 2
File size : 557 MiB
Duration : 44mn 27s
Overall bit rate : 1 750 Kbps
Encoded date : UTC 2013-02-22 08:26:02
Writing application : mkvmerge v5.8.0 ('No Sleep / Pillow') built on Sep 2 2012 15:37:04
Writing library : libebml v1.2.3 + libmatroska v1.3.0
Video
ID : 1
Format : AVC
Format/Info : Advanced Video Codec
Format profile : High@L4.0
Format settings, CABAC : Yes
Format settings, ReFrames : 10 frames
Codec ID : V_MPEG4/ISO/AVC
Duration : 44mn 27s
Bit rate : 1 559 Kbps
Width : 1 024 pixels
Height : 576 pixels
Display aspect ratio : 16:9
Frame rate mode : Constant
Frame rate : 25.000 fps
Color space : YUV
Chroma subsampling : 4:2:0
Bit depth : 8 bits
Scan type : Progressive
Bits/(Pixel*Frame) : 0.106
Stream size : 485 MiB (87%)
Writing library : x264 core 125 r2208 d9d2288
Encoding settings : cabac=1 / ref=10 / deblock=1:-3:-3 / analyse=0x3:0x113 / me=umh / subme=9 / psy=1 / psy_rd=1.00:0.20 / mixed_ref=1 / me_range=32 / chroma_me=1 / trellis=2 / 8x8dct=1 / cqm=0 / deadzone=21,11 / fast_pskip=1 / chroma_qp_offset=-3 / threads=12 / lookahead_threads=2 / sliced_threads=0 / nr=0 / decimate=0 / interlaced=0 / bluray_compat=0 / constrained_intra=0 / bframes=8 / b_pyramid=2 / b_adapt=2 / b_bias=0 / direct=3 / weightb=1 / open_gop=0 / weightp=2 / keyint=250 / keyint_min=25 / scenecut=40 / intra_refresh=0 / rc=2pass / mbtree=0 / bitrate=1559 / ratetol=1.0 / qcomp=0.70 / qpmin=0 / qpmax=69 / qpstep=4 / cplxblur=20.0 / qblur=0.5 / ip_ratio=1.40 / pb_ratio=1.30 / aq=1:1.00
Default : Yes
Forced : No
Color primaries : BT.709
Transfer characteristics : BT.709
Matrix coefficients : BT.709
Audio
ID : 2
Format : AC-3
Format/Info : Audio Coding 3
Mode extension : CM (complete main)
Format settings, Endianness : Big
Codec ID : A_AC3
Duration : 44mn 27s
Bit rate mode : Constant
Bit rate : 192 Kbps
Channel(s) : 2 channels
Channel positions : Front: L R
Sampling rate : 48.0 KHz
Bit depth : 16 bits
Compression mode : Lossy
Stream size : 61.1 MiB (11%)
Default : Yes
Forced : No

Log - x264

raw [info]: 1024x576p 1:1 @ 25/1 fps (cfr)
x264 [info]: using SAR=1/1
x264 [info]: using cpu capabilities: MMX2 SSE2Fast SSSE3 FastShuffle SSE4.2 AVX XOP FMA4 FMA3 SSEMisalign LZCNT BMI1 TBM
x264 [info]: profile High, level 4.0
x264 [info]: frame I:512 Avg QP:18.14 size: 68484
x264 [info]: frame P:15710 Avg QP:20.69 size: 17923
x264 [info]: frame B:50477 Avg QP:22.90 size: 4011
x264 [info]: consecutive B-frames: 1.7% 2.9% 6.8% 42.7% 21.7% 19.1% 2.3% 2.7% 0.1%
x264 [info]: mb I I16..4: 10.6% 64.6% 24.8%
x264 [info]: mb P I16..4: 1.3% 5.0% 1.0% P16..4: 46.3% 19.7% 11.8% 0.0% 0.0% skip:14.8%
x264 [info]: mb B I16..4: 0.1% 0.2% 0.1% B16..8: 38.1% 5.1% 1.2% direct: 2.8% skip:52.4% L0:39.6% L1:50.8% BI: 9.6%
x264 [info]: 8x8 transform intra:66.9% inter:56.3%
x264 [info]: direct mvs spatial:97.5% temporal:2.5%
x264 [info]: coded y,uvDC,uvAC intra: 80.5% 75.4% 48.1% inter: 13.9% 15.9% 5.6%
x264 [info]: i16 v,h,dc,p: 39% 14% 16% 32%
x264 [info]: i8 v,h,dc,ddl,ddr,vr,hd,vl,hu: 13% 9% 9% 8% 12% 12% 12% 11% 12%
x264 [info]: i4 v,h,dc,ddl,ddr,vr,hd,vl,hu: 15% 11% 5% 8% 13% 12% 12% 10% 12%
x264 [info]: i8c dc,h,v,p: 40% 25% 23% 12%
x264 [info]: Weighted P-Frames: Y:1.4% UV:0.3%
x264 [info]: ref P L0: 46.2% 10.5% 17.7% 5.9% 5.8% 3.9% 3.8% 1.9% 2.1% 2.0% 0.2% 0.0%
x264 [info]: ref B L0: 79.8% 10.2% 4.0% 2.1% 1.3% 1.1% 0.9% 0.4% 0.3%
x264 [info]: ref B L1: 94.5% 5.5%
x264 [info]: kb/s:1556.54

Скриншоты

Внимание ! Раздача ведётся путём добавления новых серий

Внимание! Раздача ведётся путём добавления новых серий; при каждом добавлении создаётся новый торрент. Чтобы начать докачку новой серии, пользователям необходимо сделать следующее:
(1) остановить скачивание,
(2) удалить старый торрент у себя из клиента (старые серии удалять не надо),
(3) скачать новый торрент и запустить его у себя в клиенте вместо старого, при этом указать клиенту путь в старую папку куда и должно происходить скачивание новых серий.
Ваш клиент при этом должен произвести хеширование (проверку) старой папки (если не производит сам - помогите ему сделать это), и будет докачивать только те серии которых у вас ещё нет. Старые серии при этом не удаляются, а продолжают раздаваться!
Если вы уже удалили старые серии, то предотвратить повторную закачку старых серий можно, отжав галочку в соответствующих местах при запуске нового торрента. По возможности, желательно не удалять старые серии как можно дольше чтобы релизёр не столько продолжал раздавать старые серии, а смог сконцентрироваться на новых.
FAQ по просмотру MKV/h.264/AAC-
Вы не можете начинать темы
Вы не можете отвечать на сообщения
Вы не можете редактировать свои сообщения
Вы не можете удалять свои сообщения
Вы не можете голосовать в опросах
Вы не можете прикреплять файлы к сообщениям
Вы можете скачивать файлы
!ВНИМАНИЕ!

Сайт не предоставляет электронные версии произведений, а занимается лишь коллекционированием и каталогизацией ссылок, присылаемых и публикуемых на форуме нашими читателями. Если вы являетесь правообладателем какого-либо представленного материала и не желаете, чтобы ссылка на него находилась в нашем каталоге, свяжитесь с нами, и мы незамедлительно удалим ее. Файлы для обмена на трекере предоставлены пользователями сайта, и администрация не несет ответственности за их содержание. Просьба не заливать файлы, защищенные авторскими правами, а также файлы нелегального содержания!

Искали программы, игры, дополнения, музыка mp3, аниме, аудио книги, журналы? Добро пожаловать на свободный торрент трекер Torrents, у нас можно скачать бесплатно, без смс и регистрации и прочих ограничений лучшие, отборные сборки программ, игр. Скачать торрентом не составит труда даже не опытному пользователю. Раздачи ежедневно обновляются, только лучшие и качественные раздачи, подробные описания и скриншоты. Огромная коллекция программ для работы со звуком, графикой, дизайном, а так же множество плагинов и инструментов к ним с подробной инструкцией и рекомендациями. Прошивки для навигаторов, карты. Разнообразные игры, для Windows, Linux. В коллекцие есть и старые игры любых жанров, Rpg, Action, Shooter, strategy Множество дополнений, модификаций, сценариев для популярных игр в жанре экш, рпг, гонки, стратегии, логические игры. Множество аддонов и сценариев для Microsoft Flight Simulator Большая коллекция книг, учебников. Если нет возможности купить печатное издание - смело скачивайте цифровую версию книги или, быть может, журнала. Не любите читать - можно загрузить бесплатно аудикнигу. Для веб дизайнеров и программистов так же найдется множество специализированного софта, таких как: редакторы с подсветкой, среды программирования, компоненты, системы управления базами данных, разнообразные скрипты и шаблоны. Не так давно у нас появился материал для автолюбителей и владельцев мото - оригинальные и неоригинальные каталоги запчастей, книги и журналы по ремонту и обслуживанию, видеоуроки, статьи по чип тюнингу, прошивкам. Процедура получения контента элементарная, достаточно просто скачать торрент файл и добавить его в загрузку в вашем торрент клиенте. Если у вас нет специального торрент клиента, вы можете его скачать у нас.

SitemapManifest.S01E02.iNTERNAL.720p.WEB.HEVC.x265-RMTeam | Lenovo Ideapad 330-14IKB (81G200A2TA)13,990 บาท 13,490 บาท | Raise a Hallelujah (Live)