Тайны следствия 16 / Сезон: 16 / Серии: 1-20 из 20 (Ольга Кандидатова) [2016, Детектив, криминал, HDTV 1080i] 

Цитировать
Тайны следствия 16 Год выпуска: 2016
Производитель : Россия, "Студия "Панорама" и "Форвард-Фильм"
Жанр: Детектив, криминал
Продолжительность: 43 мин.
Субтитры: нет
Режиссер: Ольга Кандидатова
В ролях: Анна Ковальчук, Вячеслав Захаров, Игорь Николаев (II), Александр Новиков (III), Ольга Павловец, Мирослав Малич, Злата Ильченко, Игорь Григорьев (IV), Юлия Яковлева, Андрей Шарков, Дмитрий Поднозов, Елена Мартыненко, Татьяна Лукьянчикова, Ирина Ворон, Лариса Логинова
Описание: Обаятельная и строгая Мария Швецова (Анна Ковальчук) уже давно стала эталоном принципиальности, находчивости и верности служебному долгу. Многие тайны так и остались бы тайнами, если бы не талант Марии Сергеевны. Именно благодаря ей много лет самые запутанные дела оказываются раскрытыми, а преступники получают справедливое наказание. Ритм, которому подчинена жизнь Марии Швецовой, продиктован неумолимой и печальной статистикой: преступления, с которыми ей приходится иметь дело каждый день, не дают возможности забыть о том, в каком жестоком мире мы живем.Однако дома ее по-прежнему ждет теплый очаг. Жаль только, что мужу и взрослеющим детям удается уделять не так много внимания. Злата и Костик сейчас живут и учатся заграницей, и общаются с матерью только по Интернету. А Луганский хотя и бывает рядом чаще, но проводить время вместе им тоже удается не всегда...
Доп. информация: раздача фильмами по 2 части в файле Релиз группа
Все раздачи сериала
Сэмпл
Качество: HDTV 1080i
Формат: TS
Видео кодек: AVC
Аудио кодек: MP2
Видео: MPEG-4 AVC, ~ 7700 Кбит/с, 1920x1080, 25 кадр/с, 0.152 Бит/(Пиксели*Кадры)
Аудио: MP2, 2 ch, 192 Кбит/с, 48,0 КГц

MI

General
ID : 1 (0x1)
Complete name : X:\раздачи\Тайны следствия 16.2016.HDTV1080.RG.Russkie.serialy.&.Files-x\02.Тайны следствия 16.2016.HDTV1080.RG.Russkie.serialy.&.Files-x.ts
Format : MPEG-TS
File size : 5.00 GiB
Duration : 1h 24mn
Overall bit rate mode : Variable
Overall bit rate : 8 450 Kbps
Video
ID : 101 (0x65)
Menu ID : 1 (0x1)
Format : AVC
Format/Info : Advanced Video Codec
Format profile : High@L4
Format settings, CABAC : Yes
Format settings, ReFrames : 3 frames
Codec ID : 27
Duration : 1h 24mn
Bit rate mode : Variable
Bit rate : 7 839 Kbps
Maximum bit rate : 6 500 Kbps
Width : 1 920 pixels
Height : 1 080 pixels
Display aspect ratio : 16:9
Frame rate : 25.000 fps
Standard : PAL
Color space : YUV
Chroma subsampling : 4:2:0
Bit depth : 8 bits
Scan type : Interlaced
Scan type, store method : Separated fields
Scan order : Top Field First
Bits/(Pixel*Frame) : 0.151
Stream size : 4.64 GiB (93%)
Color range : Limited
Color primaries : BT.709
Transfer characteristics : BT.709
Matrix coefficients : BT.709
Audio
ID : 1101 (0x44D)
Menu ID : 1 (0x1)
Format : MPEG Audio
Format version : Version 1
Format profile : Layer 2
Codec ID : 3
Duration : 1h 24mn
Bit rate mode : Constant
Bit rate : 192 Kbps
Channel(s) : 2 channels
Sampling rate : 48.0 KHz
Compression mode : Lossy
Stream size : 116 MiB (2%)
Language : English

Внимание! Раздача ведётся путём добавления новых серий!

Внимание! Раздача ведётся путём добавления новых серий
Внимание! Раздача ведётся путём добавления новых серий; при каждом добавлении создётся новый торрент.
Чтобы начать докачку новой серии, пользователям необходимо сделать следующее:
1) остановить скачивание
2) удалить старый торрент у себя из клиента (старые серии удалять не надо)
3) скачать новый торрент и запустить его у себя в клиенте вместо старого, при этом указать клиенту путь в старую папку куда и должно происходить скачивание новых серий.
Ваш клиент при этом должен произвести хеширование (проверку) старой папки (если не производит сам - помогите ему сделать это), и будет докачивать только те серии которых у вас ещё нет. Старые серии при этом не удаляются, а продолжают раздаваться!
Eсли вы уже удалили старые серии, то предотвратить повторную закачку старых серий можно, отжав галочку в соответствовавших местах при запуске нового торрента.

Скриншоты

Вы не можете начинать темы
Вы не можете отвечать на сообщения
Вы не можете редактировать свои сообщения
Вы не можете удалять свои сообщения
Вы не можете голосовать в опросах
Вы не можете прикреплять файлы к сообщениям
Вы можете скачивать файлы
!ВНИМАНИЕ!

Сайт не предоставляет электронные версии произведений, а занимается лишь коллекционированием и каталогизацией ссылок, присылаемых и публикуемых на форуме нашими читателями. Если вы являетесь правообладателем какого-либо представленного материала и не желаете, чтобы ссылка на него находилась в нашем каталоге, свяжитесь с нами, и мы незамедлительно удалим ее. Файлы для обмена на трекере предоставлены пользователями сайта, и администрация не несет ответственности за их содержание. Просьба не заливать файлы, защищенные авторскими правами, а также файлы нелегального содержания!

Искали программы, игры, дополнения, музыка mp3, аниме, аудио книги, журналы? Добро пожаловать на свободный торрент трекер Torrents, у нас можно скачать бесплатно, без смс и регистрации и прочих ограничений лучшие, отборные сборки программ, игр. Скачать торрентом не составит труда даже не опытному пользователю. Раздачи ежедневно обновляются, только лучшие и качественные раздачи, подробные описания и скриншоты. Огромная коллекция программ для работы со звуком, графикой, дизайном, а так же множество плагинов и инструментов к ним с подробной инструкцией и рекомендациями. Прошивки для навигаторов, карты. Разнообразные игры, для Windows, Linux. В коллекцие есть и старые игры любых жанров, Rpg, Action, Shooter, strategy Множество дополнений, модификаций, сценариев для популярных игр в жанре экш, рпг, гонки, стратегии, логические игры. Множество аддонов и сценариев для Microsoft Flight Simulator Большая коллекция книг, учебников. Если нет возможности купить печатное издание - смело скачивайте цифровую версию книги или, быть может, журнала. Не любите читать - можно загрузить бесплатно аудикнигу. Для веб дизайнеров и программистов так же найдется множество специализированного софта, таких как: редакторы с подсветкой, среды программирования, компоненты, системы управления базами данных, разнообразные скрипты и шаблоны. Не так давно у нас появился материал для автолюбителей и владельцев мото - оригинальные и неоригинальные каталоги запчастей, книги и журналы по ремонту и обслуживанию, видеоуроки, статьи по чип тюнингу, прошивкам. Процедура получения контента элементарная, достаточно просто скачать торрент файл и добавить его в загрузку в вашем торрент клиенте. Если у вас нет специального торрент клиента, вы можете его скачать у нас.

SitemapWhoopi Goldberg | Другие ОС и ПО под них | ShareChat - Make friends have fun