Тайны следствия 8 / Сезон: 8 / Серии: 1 - 12 (12) (Михаил Вассербаум) [2009, Криминал, детектив, драма, WEBRip] 

Цитировать
Тайны следствия 8
Год выпуска: 2009
Производство: Россия, Студия "Панорама"
Жанр: Криминал, детектив, драма
Продолжительность: 00:45:00
Субтитры: нет
Режиссёр: Михаил Вассербаум
В ролях: Анна Ковальчук, Сергей Барышев, Вячеслав Захаров, Александр Новиков (III), Светлана Щедрина, Александр Шпилько, Эмилия Спивак, Юлия Яковлева, Андрей Шарков, Игорь Григорьев (IV), Мирослав Малич, Евгений Чудаков, Галина Мамчистова, Анатолий Журавин, Анастасия Светлова, Светлана Селезнёва, Александр Блок, Игорь Николаев (II), Олег Алмазов, Евгений Баранов, Екатерина Клеопина, Наталья Фоменко, Станислав Осколков, Сергей Молянов, Татьяна Иванова (III), Светлана Слижикова, Дмитрий Андреев, Олег Попов (II), Артемий Веселов, Михаил Карпенко, Виктор Бабич, Виталий Куликов, Алексей Фокин, Витас Эйзенах
Описание: Сотрудники прокуратуры давно ожидали реформы, которая должна была коренным образом изменить их судьбу. Многие месяцы шли дебаты о том, как лучше реорганизовать систему следствия и надзора за ним, и вот, наконец, властями было принято судьбоносное и неоднозначное решение. В рамках прокуратуры образуется автономное ведомство - следственный комитет, и некоторым следователям предложили перейти на работу в эту структуру. Именно она впредь будет заниматься расследованием преступлений, в ведении прокурора остался только надзор за следствием. Для районной прокуратуры такое решение означает коренную кадровую перестановку. Вместо Ковина следствием теперь руководит Филонов, он оказывается начальником Швецовой и всех остальных прокурорских работников, кроме Зои, которая остается неизменно преданным секретарем Виктора Ивановича. Теперь расследование каждого дела становится настоящей пыткой. Для нового начальника главное не раскрытие, а статистические показатели, во имя которых он готов закрыть глаза на многое, например, на сомнительные обстоятельства самоубийства супруги известного светского льва и ректора одного из вузов Бежана, а также попытаться заработать очки в компании против "оборотней в погонах" и привлечь к ответственности Винокурова по смехотворному и явно сфабрикованному обвинению. Однако Маша и в этой, почти безнадежной ситуации проявляет свойственную ей решимость и твердость характера. Она не оставит друзей в беде и не позволит превратить следствие в фарс.
Все раздачи сериала: http://rutracker.org/forum/tracker.php?f=9&nm=%D2%E0%E9%ED%FB+%F1%EB%E5%E4%F1%F2%E2%E8%FF
Сэмпл: http://www.sendspace.com/file/flkim4
Качество: WEBRip
Формат: AVI
Видео кодек: XviD
Аудио кодек: AC3
Видео: XVID; 704х400 (16:9); 1021 Кбит/сек; 25,000 кадров/сек; Бит/(Пиксели*Кадры) : 0.145
Аудио: AC-3; 192 Кбит/сек; 48,0 КГц; 48,0 КГц

MI

Общее
Полное имя : E:\закачки\Тайны следствия 8 [rutracker.org]\01.avi
Формат : AVI
Формат/Информация : Audio Video Interleave
Размер файла : 387 Мбайт
Продолжительность : 44 м.
Общий поток : 1223 Кбит/сек
Программа кодирования : VirtualDubMod 1.5.10.2 (build 2540/release)
Библиотека кодирования : VirtualDubMod build 2540/release
Видео
Идентификатор : 0
Формат : MPEG-4 Visual
Профиль формата : Advanced Simple@L5
Параметр BVOP формата : 2
Параметр QPel формата : Нет
Параметр GMC формата : Без точки перехода
Параметр матрицы формата : Default (H.263)
Идентификатор кодека : XVID
Идентификатор кодека/Подсказка : XviD
Продолжительность : 44 м.
Битрейт : 1021 Кбит/сек
Ширина : 704 пикселя
Высота : 400 пикселей
Соотношение сторон : 16:9
Частота кадров : 25,000 кадров/сек
Цветовое пространство : YUV
Субдискретизация насыщенности : 4:2:0
Битовая глубина : 8 бит
Тип развёртки : Прогрессивная
Метод сжатия : С потерями
Бит/(Пиксели*Кадры) : 0.145
Размер потока : 323 Мбайт (84%)
Библиотека кодирования : XviD 1.2.1 (UTC 2008-12-04)
Аудио
Идентификатор : 1
Формат : AC-3
Формат/Информация : Audio Coding 3
Расширение режима : CM (complete main)
Параметр Endianness формата : Big
Идентификатор кодека : 2000
Продолжительность : 44 м.
Вид битрейта : Постоянный
Битрейт : 192 Кбит/сек
Каналы : 2 канала
Расположение каналов : Front: L R
Частота : 48,0 КГц
Битовая глубина : 16 бит
Метод сжатия : С потерями
Размер потока : 60,8 Мбайт (16%)
Выравнивание : Соединение по промежуткам
Продолжительность промежутка : 40 мс. (1,00 видеокадр)
Время предзагрузки промежутка : 512 мс.

Скриншоты

Вы не можете начинать темы
Вы не можете отвечать на сообщения
Вы не можете редактировать свои сообщения
Вы не можете удалять свои сообщения
Вы не можете голосовать в опросах
Вы не можете прикреплять файлы к сообщениям
Вы можете скачивать файлы
!ВНИМАНИЕ!

Сайт не предоставляет электронные версии произведений, а занимается лишь коллекционированием и каталогизацией ссылок, присылаемых и публикуемых на форуме нашими читателями. Если вы являетесь правообладателем какого-либо представленного материала и не желаете, чтобы ссылка на него находилась в нашем каталоге, свяжитесь с нами, и мы незамедлительно удалим ее. Файлы для обмена на трекере предоставлены пользователями сайта, и администрация не несет ответственности за их содержание. Просьба не заливать файлы, защищенные авторскими правами, а также файлы нелегального содержания!

Искали программы, игры, дополнения, музыка mp3, аниме, аудио книги, журналы? Добро пожаловать на свободный торрент трекер Torrents, у нас можно скачать бесплатно, без смс и регистрации и прочих ограничений лучшие, отборные сборки программ, игр. Скачать торрентом не составит труда даже не опытному пользователю. Раздачи ежедневно обновляются, только лучшие и качественные раздачи, подробные описания и скриншоты. Огромная коллекция программ для работы со звуком, графикой, дизайном, а так же множество плагинов и инструментов к ним с подробной инструкцией и рекомендациями. Прошивки для навигаторов, карты. Разнообразные игры, для Windows, Linux. В коллекцие есть и старые игры любых жанров, Rpg, Action, Shooter, strategy Множество дополнений, модификаций, сценариев для популярных игр в жанре экш, рпг, гонки, стратегии, логические игры. Множество аддонов и сценариев для Microsoft Flight Simulator Большая коллекция книг, учебников. Если нет возможности купить печатное издание - смело скачивайте цифровую версию книги или, быть может, журнала. Не любите читать - можно загрузить бесплатно аудикнигу. Для веб дизайнеров и программистов так же найдется множество специализированного софта, таких как: редакторы с подсветкой, среды программирования, компоненты, системы управления базами данных, разнообразные скрипты и шаблоны. Не так давно у нас появился материал для автолюбителей и владельцев мото - оригинальные и неоригинальные каталоги запчастей, книги и журналы по ремонту и обслуживанию, видеоуроки, статьи по чип тюнингу, прошивкам. Процедура получения контента элементарная, достаточно просто скачать торрент файл и добавить его в загрузку в вашем торрент клиенте. Если у вас нет специального торрент клиента, вы можете его скачать у нас.

SitemapTHE REFLECTION | Kaylee Ryan | CAM 7.1 101 Overlord (2018)