Тайны следствия / Сезон: 11 Серии: 1-12 из 12 (Михаил Вассербаум) [2012, Детектив, HDTVRip] 

Цитировать
Тайны следствия - 11
Год выпуска: 2012
Производство: "Форвард-Фильм"
Жанр: Детектив
Продолжительность: ~ 00:45:00
Субтитры: нет
Режиссёр: Михаил Вассербаум
В ролях: Анна Ковальчук, Сергей Барышев, Вячеслав Захаров, Александр Новиков, Мирослав Малич, Игорь Григорьев, Александр Шпилько, Светлана Щедрина, Олег Алмазов, Юлия Яковлева, Андрей Шарков, Дмитрий Поднозов, Злата Ильченко, Сергей Куприянов, Нелли Попова, Марианна Лучинина, Ольга Павловец
Описание: В этот раз следователь Швецова возьмётся за не менее сложные и запутанные дела. Тело генерального директора известной пивной компании Выготского будет найдено на пороге ресторана. Его жена и любовница станут бороться за освободившееся директорское кресло. Маше придётся выяснить, кто из них причастен к убийству. К счастью, Швецовой всегда готовы помочь коллеги - бывалые судмедэксперты и криминалисты Володя Винокуров и Фёдор Курочкин. Также специалистам питерского следственного комитета предстоит раскрыть странное преступление - убийство бывшего шкипера Глебова, отравленного неизвестным ноотропным препаратом.
В личной жизни у Маши есть несгибаемый тыл в лице любящего супруга Дмитрия Луганского и дочери Златы. Благодаря их поддержке, а также своим выдающимся способностям Маша никогда не пасует перед самыми трудными преступлениями. В раскрытии некоторых дел активное участие принимает новый работник комитета – следователь Людмила Колонкова. Она работает по протекции главы следственного комитета Филонова , с которым у Швецовой по-прежнему непростые отношения из-за разницы в профессиональных взглядах.
Все раздачи сериала: http://rutracker.org/forum/tracker.php?f=207&nm=%D2%E0%E9%ED%FB+%F1%EB%E5%E4%F1%F2%E2%E8%FF

Спасибо mydimka за предоставленный HDTV 1080i.
Реклама отсутствует!
Сэмпл: http://sendfile.su/781355
Качество: HDTVRip
Формат: AVI
Видео кодек: XviD
Аудио кодек: MP3
Видео: MPEG4, XviD, 704x400 (16/9), 25.000 fps, 1 595 Kbps (0.227 bit/pixel)
Аудио: MP3, 48.0 KHz, 2 ch, 128 Kbps, CBR

MI

General
Complete name : I:\Тайны следствия 11\01 серия.avi
Format : AVI
Format/Info : Audio Video Interleave
File size : 551 MiB
Duration : 44mn 27s
Overall bit rate : 1 733 Kbps
Writing application : VirtualDubMod 1.5.10.3 | www.virtualdub-fr.org || (build 2550/release)
Writing library : VirtualDubMod build 2550/release
Video
ID : 0
Format : MPEG-4 Visual
Format profile : Advanced Simple@L5
Format settings, BVOP : 1
Format settings, QPel : No
Format settings, GMC : No warppoints
Format settings, Matrix : Custom
Codec ID : XVID
Codec ID/Hint : XviD
Duration : 44mn 27s
Bit rate : 1 595 Kbps
Width : 704 pixels
Height : 400 pixels
Display aspect ratio : 16:9
Frame rate : 25.000 fps
Color space : YUV
Chroma subsampling : 4:2:0
Bit depth : 8 bits
Scan type : Progressive
Compression mode : Lossy
Bits/(Pixel*Frame) : 0.227
Stream size : 507 MiB (92%)
Writing library : XviD 63
Audio
ID : 1
Format : MPEG Audio
Format version : Version 1
Format profile : Layer 3
Mode : Joint stereo
Mode extension : MS Stereo
Codec ID : 55
Codec ID/Hint : MP3
Duration : 44mn 27s
Bit rate mode : Constant
Bit rate : 128 Kbps
Channel(s) : 2 channels
Sampling rate : 48.0 KHz
Compression mode : Lossy
Stream size : 40.7 MiB (7%)
Alignment : Aligned on interleaves
Interleave, duration : 40 ms (1.00 video frame)
Interleave, preload duration : 504 ms

Скриншоты



Раздача ведётся путём добавления новых серий

Раздача ведётся путём добавления новых серий; при каждом добавлении создаётся новый торрент. Чтобы начать докачку новой серии, пользователям необходимо сделать следующее:
(1) остановить скачивание,
(2) удалить старый торрент у себя из клиента (старые серии удалять не надо),
(3) скачать новый торрент и запустить его у себя в клиенте вместо старого, при этом указать клиенту путь в старую папку куда и должно происходить скачивание новых серий.
Ваш клиент при этом должен произвести хеширование (проверку) старой папки (если не производит сам - помогите ему сделать это), и будет докачивать только те серии которых у вас ещё нет. Старые серии при этом не удаляются, а продолжают раздаваться!
Eсли вы уже удалили старые серии, то предотвратить повторную закачку старых серий можно, отжав галочку в соответствующих местах при запуске нового торрента. По возможности, желательно не удалять старые серии как можно дольше чтобы релизёр не столько продолжал раздавать старые серии, а смог сконцентрироваться на новых.
Вы не можете начинать темы
Вы не можете отвечать на сообщения
Вы не можете редактировать свои сообщения
Вы не можете удалять свои сообщения
Вы не можете голосовать в опросах
Вы не можете прикреплять файлы к сообщениям
Вы можете скачивать файлы
!ВНИМАНИЕ!

Сайт не предоставляет электронные версии произведений, а занимается лишь коллекционированием и каталогизацией ссылок, присылаемых и публикуемых на форуме нашими читателями. Если вы являетесь правообладателем какого-либо представленного материала и не желаете, чтобы ссылка на него находилась в нашем каталоге, свяжитесь с нами, и мы незамедлительно удалим ее. Файлы для обмена на трекере предоставлены пользователями сайта, и администрация не несет ответственности за их содержание. Просьба не заливать файлы, защищенные авторскими правами, а также файлы нелегального содержания!

Искали программы, игры, дополнения, музыка mp3, аниме, аудио книги, журналы? Добро пожаловать на свободный торрент трекер Torrents, у нас можно скачать бесплатно, без смс и регистрации и прочих ограничений лучшие, отборные сборки программ, игр. Скачать торрентом не составит труда даже не опытному пользователю. Раздачи ежедневно обновляются, только лучшие и качественные раздачи, подробные описания и скриншоты. Огромная коллекция программ для работы со звуком, графикой, дизайном, а так же множество плагинов и инструментов к ним с подробной инструкцией и рекомендациями. Прошивки для навигаторов, карты. Разнообразные игры, для Windows, Linux. В коллекцие есть и старые игры любых жанров, Rpg, Action, Shooter, strategy Множество дополнений, модификаций, сценариев для популярных игр в жанре экш, рпг, гонки, стратегии, логические игры. Множество аддонов и сценариев для Microsoft Flight Simulator Большая коллекция книг, учебников. Если нет возможности купить печатное издание - смело скачивайте цифровую версию книги или, быть может, журнала. Не любите читать - можно загрузить бесплатно аудикнигу. Для веб дизайнеров и программистов так же найдется множество специализированного софта, таких как: редакторы с подсветкой, среды программирования, компоненты, системы управления базами данных, разнообразные скрипты и шаблоны. Не так давно у нас появился материал для автолюбителей и владельцев мото - оригинальные и неоригинальные каталоги запчастей, книги и журналы по ремонту и обслуживанию, видеоуроки, статьи по чип тюнингу, прошивкам. Процедура получения контента элементарная, достаточно просто скачать торрент файл и добавить его в загрузку в вашем торрент клиенте. Если у вас нет специального торрент клиента, вы можете его скачать у нас.

SitemapComputer Organization and Architecture, 9th Edition, Pdf Free Download | any way t | kshowonline