Осторожно, Модерн - 2! / Серии: 1-94 из 94 (Анна Пармас) [2001-2003, Комедийный сериал, DVDRip] 

Цитировать
Осторожно, Модерн - 2!

Год выпуска: 2001-2003
Жанр: Комедийный сериал
Производство: ООО "3-ТВ", ООО "ТО "Мега"
Продолжительность: 94 серии по 21-22 минуты
Субтитры: нет
Режиссёр: Анна Пармас
В ролях: Дмитрий Нагиев и Сергей Рост
Описание: Целый подъезд типовой многоэтажки населен их острохарактерными персонажами. Каждый вечер, на радость зрителю, они заняты такими узнаваемыми и «типичными» бытовыми проблемами, как связь с зарубежными разведками, полеты на Марс или сбыт обогащенного урана…
Доп. информация: Все серии в раздаче идут отдельными файлами, начальные заставки и финальные титры во всех сериях вырезаны в целях экономии места (около 1,5 часа видео). Названия и последовательность серий даны в соответствии с официальным DVD-изданием. Отличие от других раздач: выбрано оптимальное разрешение кадра, выбран адекватный фильтр деинтерлейсинга (нет замыленности в движениях персонажей), не стал замыливать картинку "улучшайзерами", поэтому использовал минимальную фильтрацию для устранения "снега". На 42 дюймах с расстояния 2-2.5 метра вполне смотрибельно. В общем, для оценки качайте сэмпл.

Все раздачи сериала
Исходник: собственное официальное DVD-издание (12 дисков)
Качество: DVDRip
Формат: AVI //СОВМЕСТИМО С БЫТОВЫМИ ПЛЕЕРАМИ//
Видео кодек: XviD 73
Аудио кодек: MP3
Видео: 624x384 (16:10), 1700 kbps, 25 fps, 0.28 bit/pixel
Аудио: 48.0 kHz, 2 ch, 128 kbps

Mediainfo

General
Complete name : F:\Осторожно Модерн-2\рипы\01 - Спор на баксы и девчонок.avi
Format : AVI
Format/Info : Audio Video Interleave
File size : 284 MiB
Duration : 21mn 41s
Overall bit rate : 1 829 Kbps
Writing application : VirtualDubMod 1.5.10.3 | www.virtualdub-fr.org || (build 2550/release)
Writing library : VirtualDubMod build 2550/release
Video
ID : 0
Format : MPEG-4 Visual
Format profile : Advanced Simple@L5
Format settings, BVOP : 1
Format settings, QPel : No
Format settings, GMC : No warppoints
Format settings, Matrix : Default (MPEG)
Codec ID : XVID
Codec ID/Hint : XviD
Duration : 21mn 41s
Bit rate : 1 692 Kbps
Width : 624 pixels
Height : 384 pixels
Display aspect ratio : 16:10
Frame rate : 25.000 fps
Color space : YUV
Chroma subsampling : 4:2:0
Bit depth : 8 bits
Scan type : Progressive
Compression mode : Lossy
Bits/(Pixel*Frame) : 0.282
Stream size : 262 MiB (92%)
Writing library : XviD 73
Audio
ID : 1
Format : MPEG Audio
Format version : Version 1
Format profile : Layer 3
Codec ID : 55
Codec ID/Hint : MP3
Duration : 21mn 41s
Bit rate mode : Constant
Bit rate : 128 Kbps
Channel(s) : 2 channels
Sampling rate : 48.0 KHz
Compression mode : Lossy
Stream size : 19.9 MiB (7%)
Alignment : Aligned on interleaves
Interleave, duration : 40 ms (1.00 video frame)
Interleave, preload duration : 504 ms
Writing library : LAME3.99r
Encoding settings : -m s -V 4 -q 0 -lowpass 17 -b 128

Скриншоты

Вы не можете начинать темы
Вы не можете отвечать на сообщения
Вы не можете редактировать свои сообщения
Вы не можете удалять свои сообщения
Вы не можете голосовать в опросах
Вы не можете прикреплять файлы к сообщениям
Вы можете скачивать файлы
!ВНИМАНИЕ!

Сайт не предоставляет электронные версии произведений, а занимается лишь коллекционированием и каталогизацией ссылок, присылаемых и публикуемых на форуме нашими читателями. Если вы являетесь правообладателем какого-либо представленного материала и не желаете, чтобы ссылка на него находилась в нашем каталоге, свяжитесь с нами, и мы незамедлительно удалим ее. Файлы для обмена на трекере предоставлены пользователями сайта, и администрация не несет ответственности за их содержание. Просьба не заливать файлы, защищенные авторскими правами, а также файлы нелегального содержания!

Искали программы, игры, дополнения, музыка mp3, аниме, аудио книги, журналы? Добро пожаловать на свободный торрент трекер Torrents, у нас можно скачать бесплатно, без смс и регистрации и прочих ограничений лучшие, отборные сборки программ, игр. Скачать торрентом не составит труда даже не опытному пользователю. Раздачи ежедневно обновляются, только лучшие и качественные раздачи, подробные описания и скриншоты. Огромная коллекция программ для работы со звуком, графикой, дизайном, а так же множество плагинов и инструментов к ним с подробной инструкцией и рекомендациями. Прошивки для навигаторов, карты. Разнообразные игры, для Windows, Linux. В коллекцие есть и старые игры любых жанров, Rpg, Action, Shooter, strategy Множество дополнений, модификаций, сценариев для популярных игр в жанре экш, рпг, гонки, стратегии, логические игры. Множество аддонов и сценариев для Microsoft Flight Simulator Большая коллекция книг, учебников. Если нет возможности купить печатное издание - смело скачивайте цифровую версию книги или, быть может, журнала. Не любите читать - можно загрузить бесплатно аудикнигу. Для веб дизайнеров и программистов так же найдется множество специализированного софта, таких как: редакторы с подсветкой, среды программирования, компоненты, системы управления базами данных, разнообразные скрипты и шаблоны. Не так давно у нас появился материал для автолюбителей и владельцев мото - оригинальные и неоригинальные каталоги запчастей, книги и журналы по ремонту и обслуживанию, видеоуроки, статьи по чип тюнингу, прошивкам. Процедура получения контента элементарная, достаточно просто скачать торрент файл и добавить его в загрузку в вашем торрент клиенте. Если у вас нет специального торрент клиента, вы можете его скачать у нас.

SitemapHistórico | 설날특집 불타는 청춘.E190.190205.720… | Les yeux baisss