Блудливая Калифорния / Californication / Сезон: 3 / Серии: 1-12 (12) (Дэвид Фон Энкен, Барт Фрейндлих, Джон Дал) [2009, США, комедия, драма, WEB-DLRip] MVO (NovaFilm) 

Цитировать
--Блудливая Калифорния / Californication-- Год выпуска: 2009
Страна: США | Showtime
Жанр: комедия, драма
Продолжительность: ~ 28 минут
Перевод: Профессиональный (многоголосый, закадровый) - NovaFilm
Субтитры: Нет
Режиссёры: David Duchovny (1), Bart Freundlich (2,4), David Von Ancken (2,3,5,11), Michael Lehmann (6), John Dahl (7,9), Adam Bernstein (8), Seith Mann (10), Stephen Hopkins (12)-В ролях: Дэвид Духовны (Hank Moody), Наташа МакЭлхоун (Karen), Мадлен Мартин (Becca Moody), Эван Хэндлер (Charlie Runkle), Памела Адлон (Marcy Runkle), Мадлен Зима (Mia Lewis) и другие...-Описание: Известный писатель Хэнк Муди переживает творческий и личностный кризис. За пять лет он не написал ни строчки, лишился женщины, которую любил, и окончательно погряз в пороках: марихуане, алкоголе и связях-однодневках. Но он не теряет надежды вновь обрести потерянную семью, и вернуться к творчеству.-Качество: WEB-DLRip
Формат: AVI
Видео кодек: XviD
Аудио кодек: MP3
Видео: 624x352 (16:9), 23.976 fps, ~1200 kbps, ~0.200 bit/pixel
Аудио Rus: 48 kHz, 2 ch, ~128 kbps |NovaFilm|
Аудио Eng: 48 kHz, 2 ch, ~128 kbps |Original|- &
Озвучка: Студия «Новамедиа»
Перевод: Shafran, Z, Dara
Редакторы: Freiheit, Dara
Работа со звуком: doclogan
Рип: LegendKiev-Все раздачи сериала / Сэмпл / ImDB / Кинопоиск-Внимание! В сериале присутствует ненормативная лексика и сцены с обнаженной натурой!-Список серий
  • Wish You Were Here / Почему ты не со мной?
  • The Land of Rape and Honey / Любишь медок — люби и холодок
  • Verities & Balderdash / Верю — не верю
  • Zoso / Zoso
  • Slow Happy Boys / Тупые Веселые Парни
  • Glass Houses / Стеклянные Дома
  • So Here's the Thing... / Тут такое дело...
  • The Apartment / Квартира
  • Mr. Bad Example / Мистер Плохой Пример
  • Dogtown / Догтаун
  • Comings and Goings / Свято Место Пусто не бывает
  • Mia Culpa / Mia Culpa

    Скриншоты


    MediaInfo

    Общее
    Полное имя : F:\Californication.s03e01.WEB-DLRip.Rus.Eng.NovaFilm.avi
    Формат : AVI
    Формат/Информация : Audio Video Interleave
    Размер файла : 301 Мбайт
    Продолжительность : 28 м.
    Общий поток : 1462 Кбит/сек
    Программа кодирования : VirtualDubMod 1.5.10.2 (build 2540/release)
    Библиотека кодирования : VirtualDubMod build 2540/release
    Видео
    Идентификатор : 0
    Формат : MPEG-4 Visual
    Профиль формата : Advanced Simple@L5
    Параметр BVOP формата : 1
    Параметр QPel формата : Нет
    Параметр GMC формата : Без точки перехода
    Параметр матрицы формата : Выборочная
    Идентификатор кодека : XVID
    Идентификатор кодека/Подсказка : XviD
    Продолжительность : 28 м.
    Битрейт : 1192 Кбит/сек
    Ширина : 624 пикселя
    Высота : 352 пикселя
    Соотношение сторон : 16:9
    Частота кадров : 23,976 кадра/сек
    Цветовое пространство : YUV
    Субдискретизация насыщенности : 4:2:0
    Битовая глубина : 8 бит
    Тип развёртки : Прогрессивная
    Метод сжатия : С потерями
    Бит/(Пиксели*Кадры) : 0.226
    Размер потока : 245 Мбайт (82%)
    Библиотека кодирования : XviD 73
    Аудио #1
    Идентификатор : 1
    Формат : MPEG Audio
    Версия формата : Version 1
    Профиль формата : Layer 3
    Режим : Joint stereo
    Идентификатор кодека : 55
    Идентификатор кодека/Подсказка : MP3
    Продолжительность : 28 м.
    Вид битрейта : Постоянный
    Битрейт : 128 Кбит/сек
    Каналы : 2 канала
    Частота : 48,0 КГц
    Метод сжатия : С потерями
    Размер потока : 26,4 Мбайт (9%)
    Выравнивание : Соединение по промежуткам
    Продолжительность промежутка : 42 мс. (1,00 видеокадр)
    Время предзагрузки промежутка : 504 мс.
    Библиотека кодирования : LAME3.99r
    Настройки программы : -m j -V 4 -q 2 -lowpass 17 -b 128
    Аудио #2
    Идентификатор : 2
    Формат : MPEG Audio
    Версия формата : Version 1
    Профиль формата : Layer 3
    Режим : Joint stereo
    Идентификатор кодека : 55
    Идентификатор кодека/Подсказка : MP3
    Продолжительность : 28 м.
    Вид битрейта : Постоянный
    Битрейт : 128 Кбит/сек
    Каналы : 2 канала
    Частота : 48,0 КГц
    Метод сжатия : С потерями
    Размер потока : 26,4 Мбайт (9%)
    Выравнивание : Соединение по промежуткам
    Продолжительность промежутка : 42 мс. (1,00 видеокадр)
    Время предзагрузки промежутка : 504 мс.
    Библиотека кодирования : LAME3.99r
    Настройки программы : -m j -V 4 -q 2 -lowpass 17 -b 128
  • Вы не можете начинать темы
    Вы не можете отвечать на сообщения
    Вы не можете редактировать свои сообщения
    Вы не можете удалять свои сообщения
    Вы не можете голосовать в опросах
    Вы не можете прикреплять файлы к сообщениям
    Вы можете скачивать файлы
    !ВНИМАНИЕ!

    Сайт не предоставляет электронные версии произведений, а занимается лишь коллекционированием и каталогизацией ссылок, присылаемых и публикуемых на форуме нашими читателями. Если вы являетесь правообладателем какого-либо представленного материала и не желаете, чтобы ссылка на него находилась в нашем каталоге, свяжитесь с нами, и мы незамедлительно удалим ее. Файлы для обмена на трекере предоставлены пользователями сайта, и администрация не несет ответственности за их содержание. Просьба не заливать файлы, защищенные авторскими правами, а также файлы нелегального содержания!

    Искали программы, игры, дополнения, музыка mp3, аниме, аудио книги, журналы? Добро пожаловать на свободный торрент трекер Torrents, у нас можно скачать бесплатно, без смс и регистрации и прочих ограничений лучшие, отборные сборки программ, игр. Скачать торрентом не составит труда даже не опытному пользователю. Раздачи ежедневно обновляются, только лучшие и качественные раздачи, подробные описания и скриншоты. Огромная коллекция программ для работы со звуком, графикой, дизайном, а так же множество плагинов и инструментов к ним с подробной инструкцией и рекомендациями. Прошивки для навигаторов, карты. Разнообразные игры, для Windows, Linux. В коллекцие есть и старые игры любых жанров, Rpg, Action, Shooter, strategy Множество дополнений, модификаций, сценариев для популярных игр в жанре экш, рпг, гонки, стратегии, логические игры. Множество аддонов и сценариев для Microsoft Flight Simulator Большая коллекция книг, учебников. Если нет возможности купить печатное издание - смело скачивайте цифровую версию книги или, быть может, журнала. Не любите читать - можно загрузить бесплатно аудикнигу. Для веб дизайнеров и программистов так же найдется множество специализированного софта, таких как: редакторы с подсветкой, среды программирования, компоненты, системы управления базами данных, разнообразные скрипты и шаблоны. Не так давно у нас появился материал для автолюбителей и владельцев мото - оригинальные и неоригинальные каталоги запчастей, книги и журналы по ремонту и обслуживанию, видеоуроки, статьи по чип тюнингу, прошивкам. Процедура получения контента элементарная, достаточно просто скачать торрент файл и добавить его в загрузку в вашем торрент клиенте. Если у вас нет специального торрент клиента, вы можете его скачать у нас.

    SitemapMorena Baccarin | Jouets et jeux | Rillington Place